Loading...
Error

(Церковная музыка и церковные хоры (lossless).) "Молебен за болящего" (по древнему уставу). - 2009, APE (image + .cue), lossless

Ответить на тему
Статистика раздачи
   
 
Автор Сообщение

СЕРГУЛЕТ

Стаж: 8 лет 9 месяцев

Сообщений: 2640

Откуда: LA ROMANA

Dominicanrep

post 03-Ноя-2009 19:03

[Цитировать] 

"Молебен за болящего" (по древнему уставу).

pic
Страна: Россия.
Жанр: Церковная музыка и церковные хоры (lossless).
Год выпуска: 2009
Формат: APE (image + .cue)
Битрейт аудио: lossless
Продолжительность: 01:05:28
Обложки+Содержание
picpicpic
Чтец и исполнитель песнопений Сергей Петрович Пичугин.
EAC log
Exact Audio Copy V0.99 prebeta 5 from 4. May 2009

Отчёт EAC об извлечении, выполненном 3. ноября 2009, 13:01

Сергей Пичугин / Молебен за болящего

Дисковод: ASUS BC-1205PT Adapter: 1 ID: 0

Режим чтения : Достоверность
Использование точного потока : Да
Отключение кэша аудио : Да
Использование указателей C2 : Нет

Коррекция смещения при чтении : 667
Способность читать области Lead-in и Lead-out : Нет
Заполнение пропущенных сэмплов тишиной : Да
Удаление блоков с тишиной в начале и конце : Нет
При вычислениях CRC использовались нулевые сэмплы : Да
Интерфейс : Встроенный Win32-интерфейс для Win NT/2000

Выходной формат : Внутренние WAV-операции
Формат сэмплов : 44.100 Гц; 16 бит; стерео

TOC извлечённого CD

Трек | Старт | Длительность | Начальный сектор | Конечный сектор
---------------------------------------------------------------------
1 | 0:00.00 | 1:05.50 | 0 | 4924
2 | 1:05.50 | 5:19.38 | 4925 | 28887
3 | 6:25.13 | 4:47.25 | 28888 | 50437
4 | 11:12.38 | 2:26.52 | 50438 | 61439
5 | 13:39.15 | 3:50.13 | 61440 | 78702
6 | 17:29.28 | 3:49.26 | 78703 | 95903
7 | 21:18.54 | 1:45.62 | 95904 | 103840
8 | 23:04.41 | 3:28.18 | 103841 | 119458
9 | 26:32.59 | 3:20.48 | 119459 | 134506
10 | 29:53.32 | 3:46.72 | 134507 | 151528
11 | 33:40.29 | 1:48.24 | 151529 | 159652
12 | 35:28.53 | 2:41.16 | 159653 | 171743
13 | 38:09.69 | 3:39.05 | 171744 | 188173
14 | 41:48.74 | 4:01.63 | 188174 | 206311
15 | 45:50.62 | 3:32.48 | 206312 | 222259
16 | 49:23.35 | 4:03.21 | 222260 | 240505
17 | 53:26.56 | 4:11.71 | 240506 | 259401
18 | 57:38.52 | 0:44.00 | 259402 | 262701
19 | 58:22.52 | 1:22.01 | 262702 | 268852
20 | 59:44.53 | 1:27.52 | 268853 | 275429
21 | 61:12.30 | 1:01.20 | 275430 | 280024
22 | 62:13.50 | 1:01.54 | 280025 | 284653
23 | 63:15.29 | 0:36.00 | 284654 | 287353
24 | 63:51.29 | 0:27.16 | 287354 | 289394
25 | 64:18.45 | 1:10.06 | 289395 | 294650

Характеристики диапазона извлечения и сообщения об ошибках

Выбранный диапазон

Имя файла C:\Сергей Пичугин - Молебен за болящего.wav

Пиковый уровень 100.0 %
Качество диапазона 99.9 %
CRC копии 27DDF079
Копирование... OK

Ошибок не произошло
Download

Войдите на сайт, чтобы увидеть полную информацию.

Как скачивать  ·   Правила трекера



Последний раз редактировалось: СЕРГУЛЕТ (2010-09-26 09:42), всего редактировалось 1 раз
[Профиль]  [ЛС] 

andre68

Стаж: 7 лет 9 месяцев

Сообщений: 2

post 07-Фев-2010 15:19 (спустя 3 месяца 3 дня)

[Цитировать] 

СЕРГУЛЕТ, благодарюра труды по древлерусскому пению andre68
[Профиль]  [ЛС] 

etrusk

Стаж: 7 лет 2 месяца

Сообщений: 128

Russia

post 22-Сен-2010 20:50 (спустя 7 месяцев)

[Цитировать] 

СЕРГУЛЕТ
Перезалейте, пожалуйста, обложки и содержание.
[Профиль]  [ЛС] 

СЕРГУЛЕТ

Стаж: 8 лет 9 месяцев

Сообщений: 2640

Откуда: LA ROMANA

Dominicanrep

post 26-Сен-2010 09:44 (спустя 3 дня)

[Цитировать] 

etrusk
Обложки-поправил.
[Профиль]  [ЛС] 

andrej280964

Стаж: 3 года

Сообщений: 6

post 21-Сен-2016 07:23 (спустя 5 лет 11 месяцев)

[Цитировать] 

Благодарствую..
[Профиль]  [ЛС] 
Показать сообщения:    
Ответить на тему

Текущее время: 19-Ноя 19:53

Часовой пояс: GMT + 4



Вы не можете начинать темы
Вы не можете отвечать на сообщения
Вы не можете редактировать свои сообщения
Вы не можете удалять свои сообщения
Вы не можете голосовать в опросах
Вы не можете прикреплять файлы к сообщениям
Вы не можете скачивать файлы