Loading...
Error

(Акафисты, каноны, молебны (lossless).) "Акафист Божией Матери в честь иконы Всех Скорбящих Радость с молебным каноном поемый в древних Зверинецких пещерах". - 2009, APE (image + .cue), lossless

Ответить на тему
Статистика раздачи
Скачали: [ 5 ]
   
 
Автор Сообщение

СЕРГУЛЕТ

Стаж: 8 лет

Сообщений: 2639

Откуда: LA ROMANA

Dominicanrep

post 05-Июл-2011 13:52

[Цитировать] 

"Акафист Божией Матери в честь иконы Всех Скорбящих Радость с молебным каноном поемый в древних Зверинецких пещерах".

pic
Страна: Украина
Жанр: Акафисты, каноны, молебны (lossless).
Год выпуска: 2009
Формат: APE (image + .cue)
Битрейт аудио: lossless
Продолжительность: 01:12:34
Трэклист:
1-24. Акафист Божией Матери в честь иконы Всех Скорбящих Радость.
EAC log
Exact Audio Copy V0.99 prebeta 5 from 4. May 2009

Отчёт EAC об извлечении, выполненном 9. октября 2010, 22:32

поемый в древних Зверинецких пещерах / Акафист Божией Матери в честь иконы Всех скорбящих Радость

Дисковод: ASUS DRW-2014S1T Adapter: 3 ID: 0

Режим чтения : Достоверность
Использование точного потока : Да
Отключение кэша аудио : Да
Использование указателей C2 : Нет

Коррекция смещения при чтении : 6
Способность читать области Lead-in и Lead-out : Нет
Заполнение пропущенных сэмплов тишиной : Да
Удаление блоков с тишиной в начале и конце : Нет
При вычислениях CRC использовались нулевые сэмплы : Да
Интерфейс : Встроенный Win32-интерфейс для Win NT/2000

Выходной формат : Внутренние WAV-операции
Формат сэмплов : 44.100 Гц; 16 бит; стерео

TOC извлечённого CD

Трек | Старт | Длительность | Начальный сектор | Конечный сектор
---------------------------------------------------------------------
1 | 0:00.00 | 3:59.52 | 0 | 17976
2 | 3:59.52 | 4:00.67 | 17977 | 36043
3 | 8:00.44 | 1:27.44 | 36044 | 42612
4 | 9:28.13 | 1:40.54 | 42613 | 50166
5 | 11:08.67 | 0:24.46 | 50167 | 52012
6 | 11:33.38 | 1:30.25 | 52013 | 58787
7 | 13:03.63 | 1:13.50 | 58788 | 64312
8 | 14:17.38 | 1:47.44 | 64313 | 72381
9 | 16:05.07 | 30:07.11 | 72382 | 207917
10 | 46:12.18 | 3:50.41 | 207918 | 225208
11 | 50:02.59 | 2:40.35 | 225209 | 237243
12 | 52:43.19 | 1:51.72 | 237244 | 245640
13 | 54:35.16 | 1:36.73 | 245641 | 252913
14 | 56:12.14 | 1:08.35 | 252914 | 258048
15 | 57:20.49 | 1:31.57 | 258049 | 264930
16 | 58:52.31 | 0:29.46 | 264931 | 267151
17 | 59:22.02 | 3:04.13 | 267152 | 280964
18 | 62:26.15 | 0:59.55 | 280965 | 285444
19 | 63:25.70 | 1:24.49 | 285445 | 291793
20 | 64:50.44 | 2:28.62 | 291794 | 302955
21 | 67:19.31 | 1:40.14 | 302956 | 310469
22 | 68:59.45 | 1:06.67 | 310470 | 315486
23 | 70:06.37 | 0:41.08 | 315487 | 318569
24 | 70:47.45 | 1:47.05 | 318570 | 326599

Характеристики диапазона извлечения и сообщения об ошибках

Выбранный диапазон

Имя файла F:\Зверинецкие пещеры\поемый в древних Зверинецких пещерах - Акафист Божией Матери в честь иконы Всех скорбящих Радость.wav

Пиковый уровень 94.5 %
Качество диапазона 99.9 %
CRC теста 51503AA2
CRC копии 51503AA2
Копирование... OK

Ошибок не произошло

Конец отчёта
Download

Войдите для скачивания торрент-файла

Как скачивать  ·   Правила трекера

[Профиль]  [ЛС] 

Olichka84

post 06-Ноя-2011 21:30 (спустя 4 месяца 1 день)

[Цитировать] 

Огромное Спасибо!
Благодарствую от всей души!
 

Странник1

Стаж: 7 лет 2 месяца

Сообщений: 2308

Russia

post 21-Дек-2011 15:47 (спустя 1 месяц 14 дней)

[Цитировать] 

Спасибо
[Профиль]  [ЛС] 

mangealic

Стаж: 2 года 6 месяцев

Сообщений: 22

post 14-Авг-2014 07:40 (спустя 2 года 7 месяцев)

[Цитировать] 

Спасибо
[Профиль]  [ЛС] 

RuGaZa

Стаж: 2 года 8 месяцев

Сообщений: 10

Russia

post 17-Авг-2014 15:15 (спустя 3 дня)

[Цитировать] 

Спаси Господи!
[Профиль]  [ЛС] 

Damian

Стаж: 7 лет 2 месяца

Сообщений: 1839

Откуда: Донбасс

Russia

post 29-Дек-2014 18:32 (спустя 4 месяца 12 дней)

[Цитировать] 

APE (image + .cue)
не записывается

_________________
Помолимся!
[Профиль]  [ЛС] 

Z.nabelko

Стаж: 8 месяцев

Сообщений: 2

Russia

post 03-Июн-2016 17:18 (спустя 1 год 5 месяцев)

[Цитировать] 

Благодарствую
[Профиль]  [ЛС] 
Показать сообщения:    
Ответить на тему

Текущее время: 26-Фев 16:20

Часовой пояс: GMT + 4



Вы не можете начинать темы
Вы не можете отвечать на сообщения
Вы не можете редактировать свои сообщения
Вы не можете удалять свои сообщения
Вы не можете голосовать в опросах
Вы не можете прикреплять файлы к сообщениям
Вы не можете скачивать файлы