Loading...
Error

(Церковная музыка Греции, Афона и Сербии (lossless)) Монастырь Ватопед. Агрипния на Святой Горе Афон 5. Праздник положения честного пояса Пресвятой Богородицы. - 2008, APE (image + .cue), lossless

Ответить на тему
Статистика раздачи
   
 
Автор Сообщение

СЕРГУЛЕТ

Стаж: 8 лет 7 месяцев

Сообщений: 2640

Откуда: LA ROMANA

Dominicanrep

post 12-Дек-2010 20:57

[Цитировать] 

Монастырь Ватопед. Агрипния на Святой Горе Афон 5. Праздник положения честного пояса Пресвятой Богородицы.

pic
Страна: Греция.
Жанр: Церковная музыка Греции, Афона и Сербии (lossless)
Год выпуска: 2008
Формат: APE (image + .cue)
Битрейт аудио: lossless
Продолжительность: 01:11:28
Обложки+Содержание
picpicpic
Поёт хор отцов-святогорцев
Живая запись
EAC log
Exact Audio Copy V0.99 prebeta 5 from 4. May 2009

Отчёт EAC об извлечении, выполненном 12. декабря 2010, 19:12

о. Игнатий Ватопедский / Псалты Святой Горы_5

Дисковод: ASUS DRW-2014L1T Adapter: 2 ID: 1

Режим чтения : Достоверность
Использование точного потока : Да
Отключение кэша аудио : Да
Использование указателей C2 : Нет

Коррекция смещения при чтении : 6
Способность читать области Lead-in и Lead-out : Нет
Заполнение пропущенных сэмплов тишиной : Да
Удаление блоков с тишиной в начале и конце : Нет
При вычислениях CRC использовались нулевые сэмплы : Нет
Интерфейс : Встроенный Win32-интерфейс для Win NT/2000

Выходной формат : Внутренние WAV-операции
Формат сэмплов : 44.100 Гц; 16 бит; стерео

TOC извлечённого CD

Трек | Старт | Длительность | Начальный сектор | Конечный сектор
---------------------------------------------------------------------
1 | 0:00.00 | 18:58.00 | 0 | 85349
2 | 18:58.00 | 15:41.00 | 85350 | 155924
3 | 34:39.00 | 26:35.00 | 155925 | 275549

Характеристики диапазона извлечения и сообщения об ошибках

Выбранный диапазон

Имя файла C:\о. Игнатий Ватопедский - Псалты Святой Горы_5.wav

Пиковый уровень 63.8 %
Качество диапазона 100.0 %
CRC копии 88BE2D6E
Копирование... OK

Ошибок не произошло

Конец отчёта
Download

Войдите на сайт, чтобы увидеть полную информацию.

Как скачивать  ·   Правила трекера

[Профиль]  [ЛС] 

Александр Донцов

Стаж: 7 лет 9 месяцев

Сообщений: 454

post 12-Дек-2010 23:31 (спустя 2 часа 34 минуты)

[Цитировать] 

Интересно. Спасибо.
[Профиль]  [ЛС] 

devss

Стаж: 7 лет 10 месяцев

Сообщений: 17

Откуда: РФ

Russia

post 11-Окт-2013 21:29 (спустя 2 года 9 месяцев)

[Цитировать] 

прошу раздать. спаси, Господи
[Профиль]  [ЛС] 

владимир

Стаж: 5 лет 11 месяцев

Сообщений: 5

post 27-Янв-2015 23:29 (спустя 1 год 3 месяца)

[Цитировать] 

Пожалуйста, дайте скачать, спаси Бог.
[Профиль]  [ЛС] 

владимир

Стаж: 5 лет 11 месяцев

Сообщений: 5

post 27-Янв-2015 23:31 (спустя 1 минута)

[Цитировать] 

devss
Скачать удалось?
[Профиль]  [ЛС] 

maarh_tsell

Стаж: 2 года 8 месяцев

Сообщений: 1

post 11-Май-2016 23:21 (спустя 1 год 3 месяца)

[Цитировать] 

не раздается (((
[Профиль]  [ЛС] 
Показать сообщения:    
Ответить на тему

Текущее время: 20-Сен 22:18

Часовой пояс: GMT + 4



Вы не можете начинать темы
Вы не можете отвечать на сообщения
Вы не можете редактировать свои сообщения
Вы не можете удалять свои сообщения
Вы не можете голосовать в опросах
Вы не можете прикреплять файлы к сообщениям
Вы не можете скачивать файлы