Loading...
Error

(Церковная музыка Греции, Афона и Сербии (lossless).) "Панигир в честь прп. Арсения Каппадокийского". Живая запись. CD1-Вечерня. CD2-Утреня. CD3-Литургия. - 2010, APE (image + .cue), lossless

Ответить на тему
Статистика раздачи
Скачали: [ 3 ]
   
 
Автор Сообщение

СЕРГУЛЕТ

Стаж: 8 лет 3 месяца

Сообщений: 2639

Откуда: LA ROMANA

Dominicanrep

post 21-Апр-2011 22:22

[Цитировать] 

"Панигир в честь прп. Арсения Каппадокийского". Живая запись. CD1-Вечерня. CD2-Утреня. CD3-Литургия.

pic
Страна: Греция.
Жанр: Церковная музыка Греции, Афона и Сербии (lossless).
Год выпуска: 2010
Формат: APE (image + .cue)
Битрейт аудио: lossless
Продолжительность: 01:01:44+01:07:54+01:07:09
Содержание+ Обложки
picpicpicpic
EAC log
Exact Audio Copy V1.0 beta 1 from 15. November 2010

Отчёт EAC об извлечении, выполненном 21. апреля 2011, 19:28

Хор монахов / Панигир в честь Арсения Каппадокийского

Дисковод: HL-DT-STDVDRAM GE20NU10 Adapter: 5 ID: 1

Режим чтения : Достоверность
Использование точного потока : Да
Отключение кэша аудио : Да
Использование указателей C2 : Нет

Коррекция смещения при чтении : 667
Способность читать области Lead-in и Lead-out : Нет
Заполнение пропущенных сэмплов тишиной : Да
Удаление блоков с тишиной в начале и конце : Нет
При вычислениях CRC использовались нулевые сэмплы : Да
Интерфейс : Встроенный Win32-интерфейс для Win NT/2000

Выходной формат : Внутренние WAV-операции
Формат сэмплов : 44.100 Гц; 16 бит; стерео

TOC извлечённого CD

Трек | Старт | Длительность | Начальный сектор | Конечный сектор
---------------------------------------------------------------------
1 | 0:00.00 | 2:08.02 | 0 | 9601
2 | 2:08.02 | 0:59.23 | 9602 | 14049
3 | 3:07.25 | 1:39.33 | 14050 | 21507
4 | 4:46.58 | 2:43.53 | 21508 | 33785
5 | 7:30.36 | 2:11.16 | 33786 | 43626
6 | 9:41.52 | 2:06.74 | 43627 | 53150
7 | 11:48.51 | 7:29.27 | 53151 | 86852
8 | 19:18.03 | 7:16.47 | 86853 | 119599
9 | 26:34.50 | 0:37.56 | 119600 | 122430
10 | 27:12.31 | 3:16.19 | 122431 | 137149
11 | 30:28.50 | 7:37.59 | 137150 | 171483
12 | 38:06.34 | 4:54.58 | 171484 | 193591
13 | 43:01.17 | 6:03.38 | 193592 | 220854
14 | 49:04.55 | 3:02.34 | 220855 | 234538
15 | 52:07.14 | 4:07.71 | 234539 | 253134
16 | 56:15.10 | 3:38.22 | 253135 | 269506
17 | 59:53.32 | 1:50.52 | 269507 | 277808

Характеристики диапазона извлечения и сообщения об ошибках

Выбранный диапазон

Имя файла C:\Users\Ирина\Desktop\Хор монахов - Панигир в честь Арсения Каппадокийского.wav

Пиковый уровень 97.7 %
Скорость извлечения 0.2 X
Качество диапазона 100.0 %
CRC копии 8522E335
Копирование... OK

Ошибок не произошло

Конец отчёта

CD2
Exact Audio Copy V1.0 beta 1 from 15. November 2010

Отчёт EAC об извлечении, выполненном 21. апреля 2011, 19:43

Хор монахов / Панигир в честь Арсения Каппадокийского Утреня

Дисковод: HL-DT-STDVDRAM GE20NU10 Adapter: 5 ID: 1

Режим чтения : Достоверность
Использование точного потока : Да
Отключение кэша аудио : Да
Использование указателей C2 : Нет

Коррекция смещения при чтении : 667
Способность читать области Lead-in и Lead-out : Нет
Заполнение пропущенных сэмплов тишиной : Да
Удаление блоков с тишиной в начале и конце : Нет
При вычислениях CRC использовались нулевые сэмплы : Да
Интерфейс : Встроенный Win32-интерфейс для Win NT/2000

Выходной формат : Внутренние WAV-операции
Формат сэмплов : 44.100 Гц; 16 бит; стерео

TOC извлечённого CD

Трек | Старт | Длительность | Начальный сектор | Конечный сектор
---------------------------------------------------------------------
1 | 0:00.00 | 0:48.40 | 0 | 3639
2 | 0:48.40 | 3:55.29 | 3640 | 21293
3 | 4:43.69 | 15:35.61 | 21294 | 91479
4 | 20:19.55 | 7:26.10 | 91480 | 124939
5 | 27:45.65 | 9:56.62 | 124940 | 169701
6 | 37:42.52 | 2:08.69 | 169702 | 179370
7 | 39:51.46 | 4:26.70 | 179371 | 199390
8 | 44:18.41 | 6:45.26 | 199391 | 229791
9 | 51:03.67 | 11:33.17 | 229792 | 281783
10 | 62:37.09 | 4:28.11 | 281784 | 301894
11 | 67:05.20 | 0:49.22 | 301895 | 305591

Характеристики диапазона извлечения и сообщения об ошибках

Выбранный диапазон

Имя файла C:\Users\Ирина\Desktop\Хор монахов - Панигир в честь Арсения Каппадокийского Утреня.wav

Пиковый уровень 97.7 %
Скорость извлечения 0.0 X
Качество диапазона 100.0 %
CRC копии 37630FCF
Копирование... OK

Ошибок не произошло

Конец отчёта

CD3
Exact Audio Copy V1.0 beta 1 from 15. November 2010

Отчёт EAC об извлечении, выполненном 21. апреля 2011, 19:58

Хор монахов / Панигир в честь Арсения Каппадокийского Литургия

Дисковод: HL-DT-STDVDRAM GE20NU10 Adapter: 5 ID: 1

Режим чтения : Достоверность
Использование точного потока : Да
Отключение кэша аудио : Да
Использование указателей C2 : Нет

Коррекция смещения при чтении : 667
Способность читать области Lead-in и Lead-out : Нет
Заполнение пропущенных сэмплов тишиной : Да
Удаление блоков с тишиной в начале и конце : Нет
При вычислениях CRC использовались нулевые сэмплы : Да
Интерфейс : Встроенный Win32-интерфейс для Win NT/2000

Выходной формат : Внутренние WAV-операции
Формат сэмплов : 44.100 Гц; 16 бит; стерео

TOC извлечённого CD

Трек | Старт | Длительность | Начальный сектор | Конечный сектор
---------------------------------------------------------------------
1 | 0:00.00 | 0:17.02 | 0 | 1276
2 | 0:17.02 | 8:15.36 | 1277 | 38437
3 | 8:32.38 | 2:30.07 | 38438 | 49694
4 | 11:02.45 | 6:51.33 | 49695 | 80552
5 | 17:54.03 | 1:41.55 | 80553 | 88182
6 | 19:35.58 | 14:48.16 | 88183 | 154798
7 | 34:23.74 | 6:11.12 | 154799 | 182635
8 | 40:35.11 | 16:56.69 | 182636 | 258904
9 | 57:32.05 | 8:02.08 | 258905 | 295062
10 | 65:34.13 | 1:35.16 | 295063 | 302203

Характеристики диапазона извлечения и сообщения об ошибках

Выбранный диапазон

Имя файла C:\Users\Ирина\Desktop\Хор монахов - Панигир в честь Арсения Каппадокийского Литургия.wav

Пиковый уровень 97.7 %
Скорость извлечения 0.1 X
Качество диапазона 100.0 %
CRC копии 12C182AA
Копирование... OK

Ошибок не произошло

Конец отчёта
Дополнительная информация: Поет хор монастыря прп. Арсения Каппадокийского.
Download

Войдите для скачивания торрент-файла

Как скачивать  ·   Правила трекера

[Профиль]  [ЛС] 

Владимир Радивојевић

post 15-Май-2011 21:49 (спустя 23 дня)

[Цитировать] 

Хрїстóсъ воскрéсе!
Sorry my Russian is very bad. I've been searching for this one for years - thank you very much!
I can't download this torrent - is it something wrong with it? Have you some other address :
r.share or something like that?
Бог с вами,
Владимир Радивојевић ( Бор, Србија )
 

brd_eugene

Стаж: 8 лет 5 месяцев

Сообщений: 64

Ukraine

post 17-Май-2011 11:17 (спустя 1 день 13 часов)

[Цитировать] 

Спаси Бог.
[Профиль]  [ЛС] 

Владимир Радивојевић

post 22-Май-2011 18:49 (спустя 5 дней)

[Цитировать] 

Download successful!
When I heard Anixandaria, I almost cried.
Thank you very much, God bless you!
Господи,спаси и сохрани!
 

nonono

Стаж: 2 года 3 месяца

Сообщений: 9

post 14-Янв-2016 16:42 (спустя 4 года 7 месяцев)

[Цитировать] 

нету сидеров(
[Профиль]  [ЛС] 

fyodor

Стаж: 3 года 1 месяц

Сообщений: 19

post 10-Мар-2016 14:03 (спустя 1 месяц 26 дней)

[Цитировать] 

Можэти встать на раздачу пож....
[Профиль]  [ЛС] 

fifthempire

Стаж: 1 год 2 месяца

Сообщений: 7

post 18-Мар-2016 20:24 (спустя 8 дней)

[Цитировать] 

Владимир Радивојевић

Могли бы встать на раздачу? Спасибо!
[Профиль]  [ЛС] 

Orhideyka

Стаж: 3 года 8 месяцев

Сообщений: 4

Russia

post 08-Май-2016 10:52 (спустя 1 месяц 20 дней)

[Цитировать] 

Встаньте на раздачу пожалуйста!
[Профиль]  [ЛС] 
Показать сообщения:    
Ответить на тему

Текущее время: 30-Май 00:53

Часовой пояс: GMT + 4



Вы не можете начинать темы
Вы не можете отвечать на сообщения
Вы не можете редактировать свои сообщения
Вы не можете удалять свои сообщения
Вы не можете голосовать в опросах
Вы не можете прикреплять файлы к сообщениям
Вы не можете скачивать файлы