Loading...
Error

(Церковная музыка Греции, Афона и Сербии (lossless).) "Песнопения Псалтири". Поёт византийский хор под управлением Панайотиса Каламбакаса. - 2009, APE (image + .cue), lossless

Ответить на тему
Статистика раздачи
no
   
 
Автор Сообщение

СЕРГУЛЕТ

Стаж: 8 лет 3 месяца

Сообщений: 2639

Откуда: LA ROMANA

Dominicanrep

post 02-Мар-2011 23:49

[Цитировать] 

"Песнопения Псалтири". Поёт византийский хор под управлением Панайотиса Каламбакаса.

pic
Страна: Россия.
Жанр: Церковная музыка Греции, Афона и Сербии (lossless).
Год выпуска: 2009
Формат: APE (image + .cue)
Битрейт аудио: lossless
Продолжительность: 01:01:17
Обложки+Содержание
picpicpic
EAC log
Exact Audio Copy V0.99 prebeta 5 from 4. May 2009

Отчёт EAC об извлечении, выполненном 2. марта 2011, 13:03

Unknown Artist / Песнопения Псалтири

Дисковод: ASUS DRW-2014L1T Adapter: 2 ID: 1

Режим чтения : Скоростной

Коррекция смещения при чтении : 0
Способность читать области Lead-in и Lead-out : Нет
Заполнение пропущенных сэмплов тишиной : Да
Удаление блоков с тишиной в начале и конце : Нет
При вычислениях CRC использовались нулевые сэмплы : Нет
Интерфейс : Встроенный Win32-интерфейс для Win NT/2000

Выходной формат : Внутренние WAV-операции
Формат сэмплов : 44.100 Гц; 16 бит; стерео

TOC извлечённого CD

Трек | Старт | Длительность | Начальный сектор | Конечный сектор
---------------------------------------------------------------------
1 | 0:00.00 | 7:25.16 | 0 | 33390
2 | 7:25.16 | 6:50.17 | 33391 | 64157
3 | 14:15.33 | 7:33.18 | 64158 | 98150
4 | 21:48.51 | 6:18.64 | 98151 | 126564
5 | 28:07.40 | 3:05.10 | 126565 | 140449
6 | 31:12.50 | 5:31.11 | 140450 | 165285
7 | 36:43.61 | 8:11.00 | 165286 | 202110
8 | 44:54.61 | 5:51.00 | 202111 | 228435
9 | 50:45.61 | 6:46.11 | 228436 | 258896
10 | 57:31.72 | 3:45.29 | 258897 | 275800

Характеристики диапазона извлечения и сообщения об ошибках

Выбранный диапазон

Имя файла C:\Unknown Artist - Песнопения Псалтири.wav

Проблемы синхронизации 0:00:17
Проблемы синхронизации 0:00:35
Проблемы синхронизации 0:57:23
Проблемы синхронизации 0:57:30
Проблемы синхронизации 0:57:45
Проблемы синхронизации 0:57:49
Проблемы синхронизации 0:57:57
Проблемы синхронизации 0:58:19 - 0:58:20
Проблемы синхронизации 0:58:32
Проблемы синхронизации 0:58:34
Проблемы синхронизации 0:58:37
Проблемы синхронизации 0:58:54
Проблемы синхронизации 1:01:10
Проблемы синхронизации 1:01:12

Пиковый уровень 99.6 %
CRC копии 50E14E01
Копирование завершено

Ошибок не произошло

Конец отчёта
Download

Войдите для скачивания торрент-файла

Как скачивать  ·   Правила трекера

[Профиль]  [ЛС] 

КукА

Стаж: 8 лет 1 месяц

Сообщений: 531

Откуда: Одесса

Ukraine

post 03-Мар-2011 00:43 (спустя 54 минуты)

[Цитировать] 

Спасибо!!!
[Профиль]  [ЛС] 

vupper

post 12-Дек-2011 22:06 (спустя 9 месяцев)

[Цитировать] 

Спаси Господь!
 

+Сергей+

Стаж: 6 лет 5 месяцев

Сообщений: 225

Откуда: Москва

Russia

post 02-Фев-2012 07:31 (спустя 1 месяц 20 дней)

[Цитировать] 

Спасибо.
[Профиль]  [ЛС] 

vika010288

Стаж: 7 лет 10 месяцев

Сообщений: 459

Georgia

post 02-Фев-2012 15:15 (спустя 7 часов)

[Цитировать] 

Благодарю.
[Профиль]  [ЛС] 

Bohdan_Pravoslaviya

post 19-Фев-2012 15:44 (спустя 17 дней)

[Цитировать] 

Дякую щиро!
 

dongoran

post 19-Мар-2012 18:52 (спустя 1 месяц)

[Цитировать] 

Please, seed.
Спасибо.

Greetings from Serbia for my all orthodox brothers world wide...
Слава богу / Glory to God.
 

maxvell

Стаж: 6 лет 7 месяцев

Сообщений: 76

Ukraine

post 20-Апр-2012 02:14 (спустя 1 месяц)

[Цитировать] 

Спасибо!
[Профиль]  [ЛС] 

fifthempire

Стаж: 1 год 2 месяца

Сообщений: 7

post 04-Май-2016 19:27 (спустя 4 года)

[Цитировать] 

Христос Воскресе!

Могли бы раздать?
[Профиль]  [ЛС] 
Показать сообщения:    
Ответить на тему

Текущее время: 26-Май 07:28

Часовой пояс: GMT + 4



Вы не можете начинать темы
Вы не можете отвечать на сообщения
Вы не можете редактировать свои сообщения
Вы не можете удалять свои сообщения
Вы не можете голосовать в опросах
Вы не можете прикреплять файлы к сообщениям
Вы не можете скачивать файлы