Loading...
Error

Монастырь святой Марии Магдалины в Гефсимании [2011 г., Документальный, DVDRip]

Ответить на тему
Статистика раздачи
Скачали: [ 9 ]
   
 
Автор Сообщение

corvin

Стаж: 5 лет 6 месяцев

Сообщений: 25

Откуда: Москва

Russia

post 26-Дек-2011 19:33

[Цитировать] 

Монастырь святой Марии Магдалины в Гефсимании

pic
Год выпуска: 2011
Жанр: Документальный
Продолжительность: 02:09:00

Над фильмом работали: Сергкй Ломкин, Яков Ломкин, Борис Новиков, Игорь Юденко, Константин Ломкин, Сергей Кузнецов, Андрей Шанин, Людмила Ломкина, Наталья Коваленко

Описание: Русский участок в Гефсимании был приобретен в 1882 году по инициативе начальника Русской Духовной Миссии в Иерусалиме архимандрита Антонина (Капустина) для строительства на нем церкви во имя святой равноапостольной Марии Магдалины в память об императрице Марии Александровне (Мария Магдалина была ее небесной покровительницей). 1 октября 1888 года, на праздник Покрова Богородицы Иерусалимский Патриарх Никодим освящает ее. На торжестве освящения присутствуют Вел. Князь Павел Александрович и Вел. Князь Сергий Александрович с супругой, Вел. Княгиней Елисаветой Феодоровной, которая через тридцать с небольшим лет будет упокоена в крипте этого храма. А после прославления Русской Православной Зарубежной Церковью в 1981 году мощи преподобномучениц Вел. Княгини Елисаветы и инокини Варвары были перенесены в храм и положены в раки из белого мрамора справа и слева от алтаря. С 1935 года Церковь Марии Магдалины является монастырским храмом.

Качество: DVDRip
Формат: AVI
Видео кодек: DivX
Аудио кодек: AC3
Видео: 1901 Кбит/сек, 720*544 (4:3), в 25,000 кадр/сек, DVIX
Аудио: 192 Кбит/сек, 48,0 КГц, 2 канала, AC3

Скриншоты:
pic pic pic pic pic pic
MediaInfo
Полное имя : ...\Монастыри и святыни\Монастырь святой Марии Магдалины в Гефсимании 2011\Torrent\Monastur.sv.Marii.Magdalinu.21011.DviX.DVDRip.avi
Формат : AVI
Формат/Информация : Audio Video Interleave
Размер файла : 1,89 Гбайт
Продолжительность : 2 ч. 9 м.
Общий поток : 2103 Кбит/сек
Программа кодирования : VirtualDubMod 1.5.10.3 | www.virtualdub-fr.org || (build 2550/release)
Библиотека кодирования : VirtualDubMod build 2550/release

Видео
Идентификатор : 0
Формат : MPEG-4 Visual
Профиль формата : Advanced Simple@L5
Параметр BVOP формата : 1
Параметр QPel формата : Нет
Параметр GMC формата : Без точки перехода
Параметр матрицы формата : Default (MPEG)
Идентификатор кодека : DIVX
Идентификатор кодека/Информация : Project Mayo
Идентификатор кодека/Подсказка : DivX 4
Продолжительность : 2 ч. 9 м.
Битрейт : 1901 Кбит/сек
Ширина : 720 пикселей
Высота : 544 пикселя
Соотношение сторон : 4:3
Частота кадров : 25,000 кадров/сек
Цветовое пространство : YUV
Субдискретизация насыщенности : 4:2:0
Битовая глубина : 8 бит
Тип развёртки : Прогрессивная
Метод сжатия : С потерями
Бит/(Пиксели*Кадры) : 0.194
Размер потока : 1,71 Гбайт (90%)
Библиотека кодирования : XviD 1.2.1 (UTC 2008-12-04)

Аудио
Идентификатор : 1
Формат : AC-3
Формат/Информация : Audio Coding 3
Расширение режима : CM (complete main)
Идентификатор кодека : 2000
Продолжительность : 2 ч. 9 м.
Вид битрейта : Постоянный
Битрейт : 192 Кбит/сек
Каналы : 2 канала
Расположение каналов : Front: L R
Частота : 48,0 КГц
Битовая глубина : 16 бит
Метод сжатия : С потерями
Размер потока : 177 Мбайт (9%)
Выравнивание : Разделение по промежуткам
Продолжительность промежутка : 40 мс. (1,00 видеокадр)
Время предзагрузки промежутка : 500 мс
Download

Войдите для скачивания торрент-файла

Как скачивать  ·   Правила трекера

[Профиль]  [ЛС] 

afara

Стаж: 6 лет 8 месяцев

Сообщений: 197

Moldova

post 27-Дек-2011 01:59 (спустя 6 часов)

[Цитировать] 

Спаси Господи

_________________
Господи, Ты - моё сокровище, Ты - моё счастье...
Ты - мой покой, Ты - моя жизнь вечная !
Передаю себя в волю твою.
Сам со мной живи, и Сам говори !

Отдай себя, и Он будет жить с тобою...и говорить будет с тобою...
[Профиль]  [ЛС] 

Странник1

Стаж: 7 лет 5 месяцев

Сообщений: 2308

Russia

post 27-Дек-2011 22:57 (спустя 20 часов)

[Цитировать] 

Спаси Господи
[Профиль]  [ЛС] 

Andrey_32

Стаж: 6 лет

Сообщений: 10

Откуда: Брянск

Russia

post 06-Янв-2012 01:14 (спустя 9 дней)

[Цитировать] 

Спаси Бог !
[Профиль]  [ЛС] 

shyrik-28a@mail.ru

post 18-Янв-2012 13:14 (спустя 12 дней)

[Цитировать] 

Спаси Господи!
 

rOman199

Стаж: 8 лет 3 месяца

Сообщений: 296

Russia

post 19-Янв-2012 22:35 (спустя 1 день 9 часов)

[Цитировать] 

Благодарим.С Праздников Крещения!!!
[Профиль]  [ЛС] 

valina

Стаж: 7 лет 6 месяцев

Сообщений: 97

post 02-Окт-2012 12:12 (спустя 8 месяцев)

[Цитировать] 

Спаси Господи
[Профиль]  [ЛС] 

sudak61

Стаж: 4 года 5 месяцев

Сообщений: 7

Lithuania

post 06-Янв-2014 19:54 (спустя 1 год 3 месяца)

[Цитировать] 

ХРАНИ ВАС ГОСПОДЬ!!!
[Профиль]  [ЛС] 

Gala277

Стаж: 1 год 3 месяца

Сообщений: 124

Russia

post 24-Апр-2016 22:27 (спустя 2 года 3 месяца)

[Цитировать] 

Спасибо за фильм! ХРАНИ ВАС БОГ!
[Профиль]  [ЛС] 
Показать сообщения:    
Ответить на тему

Текущее время: 29-Май 19:19

Часовой пояс: GMT + 4



Вы не можете начинать темы
Вы не можете отвечать на сообщения
Вы не можете редактировать свои сообщения
Вы не можете удалять свои сообщения
Вы не можете голосовать в опросах
Вы не можете прикреплять файлы к сообщениям
Вы не можете скачивать файлы