Loading...
Error

(Церковная музыка и церковные хоры (lossless).) "Северный Афон". Хор братии Спасо-Преображенского Валаамского монастыря. Регент иеродиакон Герман (Рябцев).- 1995, APE (image + .cue), lossless

Ответить на тему
Статистика раздачи
Скачали: [ 27 ]
   
 
Автор Сообщение

СЕРГУЛЕТ

Стаж: 8 лет

Сообщений: 2639

Откуда: LA ROMANA

Dominicanrep

post 04-Сен-2009 08:42

[Цитировать] 

"Северный Афон". Хор братии Спасо-Преображенского Валаамского монастыря. Регент иеродиакон Герман (Рябцев).

pic
Страна: Германия. "BECAR RECORDS".
Жанр: Церковная музыка и церковные хоры (lossless).
Год выпуска: 1995
Формат: APE (image + .cue)
Битрейт аудио: lossless
Продолжительность: 01:12:30
Трэклист:
1. Благовест
2. Агни Парфене (прп. Нектарий Аэгинский)
3. Господи, воззвах (глас 1 *)
4. Догматик (глас 1 *)
5. Взбранной Воеводе (глас 8 *)
6. Тропарь Навечерия Рождества Христова (глас 4 ***)
7. Ангельские пред"идите силы (глас 6 ****)
8.Стихира 9-ого Часа Рождественского сочельника (глас 6 **)
9. Великое славословие (глас 3 *)
10. Милость мира Напев Ильинского скита на Афоне
11. Достойно есть (глас 5 *)
12. Кондак Великого канона св. Андрея Критского (глас 6 *)
13. Помощник и Покровитель (глас 6 **)
14. Се жених грядет (глас 8 **)
15. Объятия Отча Напев Свято-Троицкой Сергиевой Лавры
16. С нами Бог (глас 8 **)
17. Литийная стихира прпп. Сергию и Герману Валаамским (глас 3 **)
18. Царю Небесный (глас 6 **)
19. Да молчит всякая плоть человеча **
20. Стихиры Пасхи (глас 5*)
21. Праздничный перезвон

* Византийский распев
** Знаменный распев
*** Греческий распев
**** Киевский распев
Дополнительная информация: Так издревле называли Валаамский монастырь, ставший, подобно Святой горе Афон, «монашеской страной», где ныне возрождается древний богослужебный устав и восстанавливаются древние традиции церковного пения.

На предлагаемом вашему вниманию диске вы услышите песнопения преимущественно византийского и знаменного распевов, разных по построению и манере исполнения, но близких друг к другу своей строгостью. Даже в праздничных стихирах Пасхи радость скрыта под внешней суровостью и аскетизмом.

Песнопения, записанные на этом диске, дают слушателям яркое представление об особом стиле монашеского пения, которому вместе с простотой и безыскусностью присущи искренность и душевность.
EAC log
Exact Audio Copy V0.99 prebeta 5 from 4. May 2009

Отчёт EAC об извлечении, выполненном 4. сентября 2009, 8:20

Хор Валаамского монастыря / Северный Афон

Дисковод: ASUS BC-1205PT Adapter: 1 ID: 0

Режим чтения : Достоверность
Использование точного потока : Да
Отключение кэша аудио : Да
Использование указателей C2 : Нет

Коррекция смещения при чтении : 667
Способность читать области Lead-in и Lead-out : Нет
Заполнение пропущенных сэмплов тишиной : Да
Удаление блоков с тишиной в начале и конце : Нет
При вычислениях CRC использовались нулевые сэмплы : Да
Интерфейс : Встроенный Win32-интерфейс для Win NT/2000

Выходной формат : Внутренние WAV-операции
Формат сэмплов : 44.100 Гц; 16 бит; стерео

TOC извлечённого CD

Трек | Старт | Длительность | Начальный сектор | Конечный сектор
---------------------------------------------------------------------
1 | 0:00.63 | 1:27.43 | 63 | 6630
2 | 1:28.31 | 6:01.62 | 6631 | 33767
3 | 7:30.18 | 1:55.08 | 33768 | 42400
4 | 9:25.26 | 3:15.62 | 42401 | 57087
5 | 12:41.13 | 1:21.63 | 57088 | 63225
6 | 14:03.01 | 1:12.22 | 63226 | 68647
7 | 15:15.23 | 1:29.35 | 68648 | 75357
8 | 16:44.58 | 4:55.01 | 75358 | 97483
9 | 21:39.59 | 5:27.52 | 97484 | 122060
10 | 27:07.36 | 5:59.53 | 122061 | 149038
11 | 33:07.14 | 2:13.02 | 149039 | 159015
12 | 35:20.16 | 2:21.65 | 159016 | 169655
13 | 37:42.06 | 1:54.08 | 169656 | 178213
14 | 39:36.14 | 2:27.58 | 178214 | 189296
15 | 42:03.72 | 2:38.59 | 189297 | 201205
16 | 44:42.56 | 4:51.48 | 201206 | 223078
17 | 49:34.29 | 2:32.69 | 223079 | 234547
18 | 52:07.23 | 2:06.49 | 234548 | 244046
19 | 54:13.72 | 9:31.71 | 244047 | 286942
20 | 63:45.68 | 7:15.13 | 286943 | 319580
21 | 71:01.06 | 1:27.31 | 319581 | 326136

Характеристики диапазона извлечения и сообщения об ошибках

Выбранный диапазон

Имя файла C:\Users\Сергулет\Documents\Хор Валаамского монастыря - Северный Афон.wav

Пиковый уровень 89.1 %
Качество диапазона 100.0 %
CRC копии 81FFB78D
Копирование... OK

Ошибок не произошло

Конец отчёта
Download

Войдите для скачивания торрент-файла

Как скачивать  ·   Правила трекера

[Профиль]  [ЛС] 

vadiman

post 21-Фев-2010 22:02 (спустя 5 месяцев 17 дней)

[Цитировать] 

Спасибо! Мой любимый сборник!! Smile
 

igorek23

Стаж: 6 лет 7 месяцев

Сообщений: 12

Ukraine

post 15-Июл-2010 21:59 (спустя 4 месяца 21 день)

[Цитировать] 

низкий поклон вам за наш любимый "Северный Афон"
[Профиль]  [ЛС] 

sinner7

Стаж: 6 лет 8 месяцев

Сообщений: 242

post 13-Окт-2010 22:21 (спустя 2 месяца 29 дней)

[Цитировать] 

Спаси Господи!
[Профиль]  [ЛС] 

Владимир Лухов

Стаж: 6 лет 5 месяцев

Сообщений: 105

Откуда: Саратов

Russia

post 20-Ноя-2010 03:43 (спустя 1 месяц 6 дней)

[Цитировать] 

Благодарю!

_________________
С уважением. Владимир.
[Профиль]  [ЛС] 

Виктор13

post 16-Янв-2011 02:50 (спустя 1 месяц 25 дней)

[Цитировать] 

Спасибо большое.Эти песнопения душу согревают.)
 

Cepera032

Стаж: 6 лет 3 месяца

Сообщений: 9

post 21-Сен-2011 19:05 (спустя 8 месяцев)

[Цитировать] 

спасибо!
[Профиль]  [ЛС] 

Andriy

post 30-Дек-2011 03:08 (спустя 3 месяца 8 дней)

[Цитировать] 

Ка мне записать на диск тот альбом? что то не принимает тот формат..
 

shymsknik

Стаж: 6 лет 1 месяц

Сообщений: 179

Russia

post 18-Апр-2012 15:21 (спустя 3 месяца 19 дней)

[Цитировать] 

Спасибо! Мой любимый сборник!!
[Профиль]  [ЛС] 

dron293

Стаж: 6 лет 5 месяцев

Сообщений: 19

Откуда: Москва

Russia

post 17-Окт-2012 16:55 (спустя 5 месяцев)

[Цитировать] 

shymsknik писал(а):

Спасибо! Мой любимый сборник!!
Теперь и мой любимый тоже Smile
[Профиль]  [ЛС] 

AllaVal27

Стаж: 3 года 3 месяца

Сообщений: 139

Canada

post 12-Ноя-2013 04:44 (спустя 1 год)

[Цитировать] 

Спасибо, послушаем и по русски!
[Профиль]  [ЛС] 

Alex-31

Стаж: 3 года 2 месяца

Сообщений: 3

Russia

post 12-Дек-2013 20:56 (спустя 1 месяц)

[Цитировать] 

Спасибо большое за раздачу!

вот хочу прикрепить исправленный CUE-файл, а какой-то администратор не даёт,

что за глупость? Mad

_________________
Mensura omnium rerum optima
[Профиль]  [ЛС] 

света1970

Стаж: 6 лет 3 месяца

Сообщений: 122

Russia

post 04-Мар-2014 11:03 (спустя 2 месяца 22 дня)

[Цитировать] 

Приятного поста.Хорошие песнопения. И душевно согревают, и духовно настраивают.
[Профиль]  [ЛС] 

Alex Sag

Стаж: 7 лет 8 месяцев

Сообщений: 270

Kazakhstan

post 08-Апр-2014 07:15 (спустя 1 месяц 3 дня)

[Цитировать] 

Спаси Господи!

_________________
Alexey
[Профиль]  [ЛС] 

rr3ddll0bb

Стаж: 11 месяцев

Сообщений: 1

post 21-Мар-2016 16:28 (спустя 1 год 11 месяцев)

[Цитировать] 

Всем привет!

Не могли бы вы сделать Сидов пожалуйста? Я был бы признателен много, мне нравится эта музыка много!

Спасибо большое =)
[Профиль]  [ЛС] 
Показать сообщения:    
Ответить на тему

Текущее время: 21-Фев 20:34

Часовой пояс: GMT + 4



Вы не можете начинать темы
Вы не можете отвечать на сообщения
Вы не можете редактировать свои сообщения
Вы не можете удалять свои сообщения
Вы не можете голосовать в опросах
Вы не можете прикреплять файлы к сообщениям
Вы не можете скачивать файлы