Loading...
Error

(Песнопения знаменного и других древних распевов.) "Воздвижение Честнаго и Животворящего Креста Господня". Праздник второй. Древлеправославное знаменное пение. - 2011, APE (image + .cue), lossless

Ответить на тему
Статистика раздачи
   
 
Автор Сообщение

СЕРГУЛЕТ

Стаж: 8 лет 9 месяцев

Сообщений: 2640

Откуда: LA ROMANA

Dominicanrep

post 20-Сен-2011 13:48

[Цитировать] 

"Воздвижение Честнаго и Животворящего Креста Господня". Праздник второй. Древлеправославное знаменное пение.

pic
Страна: Россия.
Жанр: Песнопения знаменного и других древних распевов.
Год выпуска: 2011
Формат: APE (image + .cue)
Битрейт аудио: lossless
Продолжительность: 01:15:00
Обложки+Содержание
picpic
EAC log
Exact Audio Copy V1.0 beta 2 from 29. April 2011

Отчёт EAC об извлечении, выполненном 20. сентября 2011, 11:26

Часть 2 / Воздвижение

Дисковод: ASUS DRW-2014L1T Adapter: 2 ID: 1

Режим чтения : Достоверность
Использование точного потока : Да
Отключение кэша аудио : Да
Использование указателей C2 : Нет

Коррекция смещения при чтении : 6
Способность читать области Lead-in и Lead-out : Нет
Заполнение пропущенных сэмплов тишиной : Да
Удаление блоков с тишиной в начале и конце : Нет
При вычислениях CRC использовались нулевые сэмплы : Да
Интерфейс : Встроенный Win32-интерфейс для Win NT/2000

Выходной формат : Внутренние WAV-операции
Формат сэмплов : 44.100 Гц; 16 бит; стерео

TOC извлечённого CD

Трек | Старт | Длительность | Начальный сектор | Конечный сектор
---------------------------------------------------------------------
1 | 0:00.00 | 4:52.66 | 0 | 21965
2 | 4:52.66 | 4:33.26 | 21966 | 42466
3 | 9:26.17 | 7:48.58 | 42467 | 77624
4 | 17:15.00 | 3:58.12 | 77625 | 95486
5 | 21:13.12 | 9:33.37 | 95487 | 138498
6 | 30:46.49 | 2:25.49 | 138499 | 149422
7 | 33:12.23 | 1:39.01 | 149423 | 156848
8 | 34:51.24 | 1:03.36 | 156849 | 161609
9 | 35:54.60 | 0:46.28 | 161610 | 165087
10 | 36:41.13 | 1:16.38 | 165088 | 170825
11 | 37:57.51 | 1:28.56 | 170826 | 177481
12 | 39:26.32 | 1:39.56 | 177482 | 184962
13 | 41:06.13 | 1:15.64 | 184963 | 190651
14 | 42:22.02 | 1:37.30 | 190652 | 197956
15 | 43:59.32 | 1:53.54 | 197957 | 206485
16 | 45:53.11 | 2:37.59 | 206486 | 218319
17 | 48:30.70 | 5:05.03 | 218320 | 241197
18 | 53:35.73 | 8:56.63 | 241198 | 281460
19 | 62:32.61 | 9:59.19 | 281461 | 326404
20 | 72:32.05 | 2:30.38 | 326405 | 337692

Характеристики диапазона извлечения и сообщения об ошибках

Выбранный диапазон

Имя файла C:\Часть 2 - Воздвижение.wav

Пиковый уровень 93.5 %
Скорость извлечения 9.3 X
Качество диапазона 99.9 %
CRC копии E52A6096
Копирование... OK

Ошибок не произошло

Конец отчёта
Праздник первый. Рождество Пресвятой Богородицы: http://pravtor.ru/viewtopic.php?t=4130
Download

Войдите на сайт, чтобы увидеть полную информацию.

Как скачивать  ·   Правила трекера

[Профиль]  [ЛС] 

Владимир Лухов

Стаж: 7 лет 2 месяца

Сообщений: 109

Откуда: Саратов

Russia

post 18-Авг-2012 09:33 (спустя 10 месяцев)

[Цитировать] 

Спасибо.

_________________
С уважением. Владимир.
[Профиль]  [ЛС] 

Marmeladova

Стаж: 1 год 8 месяцев

Сообщений: 1

Russia

post 17-Мар-2016 02:33 (спустя 3 года 6 месяцев)

[Цитировать] 

Будьте добры, встаньте на раздачу, пожалуйста!
Заранее благодарю. Спаси Бог!

_________________
Храни вас всех Господь!
[Профиль]  [ЛС] 

a1bllll

Стаж: 6 лет 9 месяцев

Сообщений: 358

Russia

post 30-Авг-2016 22:53 (спустя 5 месяцев 13 дней)

[Цитировать] 

Спаси Вас Бог!!!

_________________
Слава Богу за всё!
[Профиль]  [ЛС] 
Показать сообщения:    
Ответить на тему

Текущее время: 22-Ноя 07:55

Часовой пояс: GMT + 4



Вы не можете начинать темы
Вы не можете отвечать на сообщения
Вы не можете редактировать свои сообщения
Вы не можете удалять свои сообщения
Вы не можете голосовать в опросах
Вы не можете прикреплять файлы к сообщениям
Вы не можете скачивать файлы