Loading...
Error

Раннее русское многоголосие - Мужской хор Издательского отдела МП (1988) lossless FLAC (image + .cue) + mp3 320 Kbps

Ответить на тему
Статистика раздачи
   
 
Автор Сообщение

Academic Crack

Администратор

Стаж: 8 лет 11 месяцев

Сообщений: 2081

Russia

post 28-Фев-2009 19:34

[Цитировать] 

Раннее русское многоголосие - Мужской хор сотрудников Издательского отдела Московского Патриархата (1988) lossless FLAC (image + .cue) + mp3 320 Kbps
pic
Год выпуска: 1988
Жанр: Хоровое пение
Производитель диска: Gramzapis Company
Аудио кодек: FLAC/ mp3
Тип рипа: image+.cue
Частота дискретизации: 44,1 kHz
Битрейт аудио: lossless + mp3 320 Kbps
Исполнитель: Мужской хор сотрудников Издательского отдела Московского Патриархата под управлением Анатолия Гринденко
Продолжительность: 60:13

Треклист:
01. Приидите, поклонимся 00:57
02. Единородный Сыне 01:49
03. Трисвятое 02:05
04. Достойно есть 02:41
05. Причастный стих 10:20
06. Видехом свет истинный 00:49
07. Да исполнятся уста моя 01:25
08. Свете тихий 02:08
09. Хвалите имя Господне 03:51
10. Величание (обиход) 01:39
11. Достойно есть 01:59
12. Взбранной воеводе 01:29
13. Херувимская (знаменная) 07:58
14. Евангельская стихира 02:41
15. Царю Небесный (знаменный распев) 01:41
16. От юности моея (строчной демественный распев) 03:42
17. Богородице Дево, радуйся (знаменный распев) 01:28
18. Се, Жених грядет в полунощи (знаменный распев) 01:59
19. Дал еси украшение церкви Твоей, Господи (большой знаменный распев) 03:01
20. Да молчит всякая плоть человеча (ин распев) 06:31
Лог EAC
Exact Audio Copy V0.99 prebeta 4 from 23. January 2008

Отчёт EAC об извлечении, выполненном 30. января 2009, 20:25

Мужской хор сотрудников Издательского отдела Московского Патриархата / Раннее русское многоголосие

Дисковод: ASUS DRW-1814BL Adapter: 2 ID: 1

Режим чтения : Достоверность
Использование точного потока : Да
Отключение кэша аудио : Да
Использование указателей C2 : Нет

Коррекция смещения при чтении : 6
Способность читать области Lead-in и Lead-out : Нет
Заполнение пропущенных сэмплов тишиной : Да
Удаление блоков с тишиной в начале и конце : Нет
При вычислениях CRC использовались нулевые сэмплы : Да
Интерфейс : Установленный внешний ASPI-интерфейс

Выходной формат : Внутренние WAV-операции
Формат сэмплов : 44.100 Гц; 16 бит; стерео

TOC извлечённого CD

Трек | Старт | Длительность | Начальный сектор | Конечный сектор
---------------------------------------------------------------------
1 | 0:00.00 | 0:57.00 | 0 | 4274
2 | 0:57.00 | 1:49.00 | 4275 | 12449
3 | 2:46.00 | 2:05.00 | 12450 | 21824
4 | 4:51.00 | 2:41.00 | 21825 | 33899
5 | 7:32.00 | 10:20.00 | 33900 | 80399
6 | 17:52.00 | 0:49.00 | 80400 | 84074
7 | 18:41.00 | 1:25.00 | 84075 | 90449
8 | 20:06.00 | 2:08.00 | 90450 | 100049
9 | 22:14.00 | 3:51.00 | 100050 | 117374
10 | 26:05.00 | 1:39.00 | 117375 | 124799
11 | 27:44.00 | 1:59.00 | 124800 | 133724
12 | 29:43.00 | 1:29.00 | 133725 | 140399
13 | 31:12.00 | 7:58.00 | 140400 | 176249
14 | 39:10.00 | 2:41.00 | 176250 | 188324
15 | 41:51.00 | 1:41.00 | 188325 | 195899
16 | 43:32.00 | 3:42.00 | 195900 | 212549
17 | 47:14.00 | 1:28.00 | 212550 | 219149
18 | 48:42.00 | 1:59.00 | 219150 | 228074
19 | 50:41.00 | 3:01.00 | 228075 | 241649
20 | 53:42.00 | 6:31.00 | 241650 | 270974

Характеристики диапазона извлечения и сообщения об ошибках

Выбранный диапазон

Имя файла J:\Religion\Мужской хор сотрудников Издательского отдела Московского Патриархата - Раннее русское многоголосие\lossless\CDImage.wav

Пиковый уровень 61.9 %
Качество диапазона 100.0 %
CRC теста 7EA94DF0
CRC копии 7EA94DF0
Копирование... OK

Ошибок не произошло

AccurateRip: сводка
Трек 1 нет в базе данных
Трек 2 нет в базе данных
Трек 3 нет в базе данных
Трек 4 нет в базе данных
Трек 5 нет в базе данных
Трек 6 нет в базе данных
Трек 7 нет в базе данных
Трек 8 нет в базе данных
Трек 9 нет в базе данных
Трек 10 нет в базе данных
Трек 11 нет в базе данных
Трек 12 нет в базе данных
Трек 13 нет в базе данных
Трек 14 нет в базе данных
Трек 15 нет в базе данных
Трек 16 нет в базе данных
Трек 17 нет в базе данных
Трек 18 нет в базе данных
Трек 19 нет в базе данных
Трек 20 нет в базе данных
Ни одного трека нет в базе AccurateRip

Конец отчёта
Tau Analyzer
pic
Внимание!
Кто хочет скачать только лишь mp3, то выбираем соответствующую папку в торренте при добавлении закачки. Кто хочет скачать только lossless - то же самое. контент lossless и lossy идентичны. Кто хочет скачать все - качайте все. Сканы обложек и диска в разрешении 300 dpi, скрины Tau Analyzer (главное окно + спектрограммы треков), а также log-файл EAC приложены к раздаче.

О том, как воспроизводить lossless-форматы на компьютере, читайте здесь.
Сканы обложек и диска
picpicpicpic
Download

Войдите на сайт, чтобы увидеть полную информацию.

Как скачивать  ·   Правила трекера


_________________
pic
pic 100 Мбит/с, pic 100 Мбит/с.
Исправили раздачу? Пишите в личку со ссылкой на раздачу.


Последний раз редактировалось: Academic Crack (2011-03-08 00:40), всего редактировалось 1 раз
[Профиль]  [ЛС] 

potemkin11

Стаж: 7 лет 8 месяцев

Сообщений: 42

Belarus

post 17-Янв-2011 12:24 (спустя 1 год 10 месяцев)

[Цитировать] 

СПаси Господи!!
[Профиль]  [ЛС] 

angel4495

post 26-Мар-2011 14:53 (спустя 2 месяца 9 дней)

[Цитировать] 

Спаси Господи
 

Spartak

post 06-Фев-2012 20:25 (спустя 10 месяцев)

[Цитировать] 

Спаси Бог!
 

Webioss

Стаж: 3 года 11 месяцев

Сообщений: 4

Russia

post 08-Мар-2016 14:53 (спустя 4 года 1 месяц)

[Цитировать] 

Встаньте на раздачу, пжл
Спаси Бог!
[Профиль]  [ЛС] 

a1bllll

Стаж: 6 лет 9 месяцев

Сообщений: 358

Russia

post 31-Авг-2016 00:07 (спустя 5 месяцев 22 дня)

[Цитировать] 

Спаси Вас Бог!

_________________
Слава Богу за всё!
[Профиль]  [ЛС] 

Alexander1985

Стаж: 1 год

Сообщений: 7

Russia

post 30-Окт-2016 16:49 (спустя 1 месяц 30 дней)

[Цитировать] 

Благодарю.
[Профиль]  [ЛС] 
Показать сообщения:    
Ответить на тему

Текущее время: 22-Ноя 07:55

Часовой пояс: GMT + 4



Вы не можете начинать темы
Вы не можете отвечать на сообщения
Вы не можете редактировать свои сообщения
Вы не можете удалять свои сообщения
Вы не можете голосовать в опросах
Вы не можете прикреплять файлы к сообщениям
Вы не можете скачивать файлы