Loading...
Error

(Церковная музыка и церковные хоры (lossless).) Хор "Св. Роман Сладкопевец". Света литургия. - 2003, FLAC (image + .cue), lossless

Ответить на тему
Статистика раздачи
no
   
 
Автор Сообщение

СЕРГУЛЕТ

Стаж: 8 лет 3 месяца

Сообщений: 2639

Откуда: LA ROMANA

Dominicanrep

post 02-Дек-2009 22:38

[Цитировать] 

Хор "Св. Роман Сладкопевец". Света литургия.

pic
Страна: Болгария.
Жанр: Церковная музыка и церковные хоры (lossless).
Год выпуска: 2003
Формат: FLAC (image + .cue)
Битрейт аудио: lossless
Продолжительность: 00:49:58
Трэклист:
1. Камбанен звънь 3:19
2. Велика ектения /гл.8/ 6:17
3. Святий Боже /гл.1/ 5:30
4. Херувимска песен /гл.1, празнична 9:55
5. Отца и Сина /гл.1/ 0:54
6. Верую /речитатив/ 1:45
7. Милость мира /гл.1/ 7:10
8. Достойно есть /гл.1/ 2:48
9. Отче наш /речитатив/ 1:25
10. Радуйся Всечистая /гл.1/ 7:28
11. Камбанен звънь 3:23
Дополнительная информация: Солисти: о. Кирил Дидов: /2,4,5,6,7,8,9,10/ /2,4,5,6,7,8,9,10/
дякон Георги Янъков:/2,4,6/
Муз. продуцент: о. Кирил Попов
Диригент: Симеон Генов
Тонрежисьор: Тони Грейпс.
EAC log
Exact Audio Copy V0.99 prebeta 3 from 28. July 2007

Отчёт EAC об извлечении, выполненном 25. ноября 2008, 17:32

Holy Saint Liturgy / Choir St Romanus

Дисковод: LITE-ON DVDRW SOHW-1653S Adapter: 0 ID: 2

Режим чтения : Достоверность
Использование точного потока : Да
Отключение кэша аудио : Да
Использование указателей C2 : Нет

Коррекция смещения при чтении : 12
Способность читать области Lead-in и Lead-out : Нет
Заполнение пропущенных сэмплов тишиной : Да
Удаление блоков с тишиной в начале и конце : Нет
При вычислениях CRC использовались нулевые сэмплы : Да
Интерфейс : Установленный внешний ASPI-интерфейс

Выходной формат : Внутренние WAV-операции
Формат сэмплов : 44.100 Гц; 16 бит; стерео

TOC извлечённого CD

Трек | Старт | Длительность | Начальный сектор | Конечный сектор
---------------------------------------------------------------------
1 | 0:00.00 | 3:19.55 | 0 | 14979
2 | 3:19.55 | 6:17.28 | 14980 | 43282
3 | 9:37.08 | 5:30.06 | 43283 | 68038
4 | 15:07.14 | 9:55.33 | 68039 | 112696
5 | 25:02.47 | 0:54.42 | 112697 | 116788
6 | 25:57.14 | 1:45.57 | 116789 | 124720
7 | 27:42.71 | 7:10.22 | 124721 | 156992
8 | 34:53.18 | 2:48.22 | 156993 | 169614
9 | 37:41.40 | 1:25.15 | 169615 | 176004
10 | 39:06.55 | 7:28.10 | 176005 | 209614
11 | 46:34.65 | 3:23.44 | 209615 | 224883

Характеристики диапазона извлечения и сообщения об ошибках

Выбранный диапазон

Имя файла E:\РАЗДАЧА\Хор Св. Роман Сладкопевец-Света Литургия\Holy Saint Liturgy - Choir St Romanus.wav

Пиковый уровень 100.0 %
Качество диапазона 100.0 %
CRC копии AE0E599D
Копирование... OK

Ошибок не произошло

AccurateRip: сводка

Трек 1 нет в базе данных
Трек 2 нет в базе данных
Трек 3 нет в базе данных
Трек 4 нет в базе данных
Трек 5 нет в базе данных
Трек 6 нет в базе данных
Трек 7 нет в базе данных
Трек 8 нет в базе данных
Трек 9 нет в базе данных
Трек 10 нет в базе данных
Трек 11 нет в базе данных

Ни одного трека нет в базе AccurateRip

Конец отчёта
Download

Войдите для скачивания торрент-файла

Как скачивать  ·   Правила трекера

[Профиль]  [ЛС] 

aSpeeDAyad

Стаж: 7 лет 3 месяца

Сообщений: 10

Ukraine

post 02-Янв-2012 13:56 (спустя 2 года)

[Цитировать] 

Спаси Боже !
[Профиль]  [ЛС] 

vika010288

Стаж: 7 лет 10 месяцев

Сообщений: 459

Georgia

post 02-Янв-2012 21:37 (спустя 7 часов)

[Цитировать] 

спасибо.
[Профиль]  [ЛС] 

mozgilla

Стаж: 7 лет

Сообщений: 15

Ukraine

post 21-Фев-2016 17:16 (спустя 4 года 1 месяц)

[Цитировать] 

А что случилось с раздачей?

_________________
Roman
[Профиль]  [ЛС] 
Показать сообщения:    
Ответить на тему

Текущее время: 24-Май 00:43

Часовой пояс: GMT + 4



Вы не можете начинать темы
Вы не можете отвечать на сообщения
Вы не можете редактировать свои сообщения
Вы не можете удалять свои сообщения
Вы не можете голосовать в опросах
Вы не можете прикреплять файлы к сообщениям
Вы не можете скачивать файлы