Loading...
Error

(Церковная музыка и церковные хоры (lossless)) "Хвалите отроцы Господа". Избранные песнопения Обихода знаменного роспева. - 2008, APE (image + .cue), lossless

Ответить на тему
Статистика раздачи
   
 
Автор Сообщение

СЕРГУЛЕТ

Стаж: 8 лет 9 месяцев

Сообщений: 2640

Откуда: LA ROMANA

Dominicanrep

post 01-Окт-2009 23:19

[Цитировать] 

"Хвалите отроцы Господа". Избранные песнопения Обихода знаменного роспева.

pic
Страна: Россия. Печенкин Глеб Борисович.
Жанр: Церковная музыка и церковные хоры (lossless)
Год выпуска: 2008
Формат: APE (image + .cue)
Битрейт аудио: lossless
Продолжительность: 01:07:10
Обложки+Содержание
picpicpicpicpicpicpic
Выпуск 2: http://pravtor.ru/viewtopic.php?t=4104
EAC log
Exact Audio Copy V0.99 prebeta 5 from 4. May 2009

Отчёт EAC об извлечении, выполненном 1. октября 2009, 18:48

Певчая станица / Хвалите отроцы Господа

Дисковод: ASUS BC-1205PT Adapter: 1 ID: 0

Режим чтения : Достоверность
Использование точного потока : Да
Отключение кэша аудио : Да
Использование указателей C2 : Нет

Коррекция смещения при чтении : 667
Способность читать области Lead-in и Lead-out : Нет
Заполнение пропущенных сэмплов тишиной : Да
Удаление блоков с тишиной в начале и конце : Нет
При вычислениях CRC использовались нулевые сэмплы : Да
Интерфейс : Встроенный Win32-интерфейс для Win NT/2000

Выходной формат : Внутренние WAV-операции
Формат сэмплов : 44.100 Гц; 16 бит; стерео

TOC извлечённого CD

Трек | Старт | Длительность | Начальный сектор | Конечный сектор
---------------------------------------------------------------------
1 | 0:00.00 | 2:26.71 | 0 | 11020
2 | 2:26.71 | 7:50.69 | 11021 | 46339
3 | 10:17.65 | 2:53.19 | 46340 | 59333
4 | 13:11.09 | 1:23.23 | 59334 | 65581
5 | 14:34.32 | 2:11.63 | 65582 | 75469
6 | 16:46.20 | 3:06.66 | 75470 | 89485
7 | 19:53.11 | 0:57.37 | 89486 | 93797
8 | 20:50.48 | 0:47.33 | 93798 | 97355
9 | 21:38.06 | 0:50.01 | 97356 | 101106
10 | 22:28.07 | 1:14.56 | 101107 | 106712
11 | 23:42.63 | 4:15.69 | 106713 | 125906
12 | 27:58.57 | 3:28.20 | 125907 | 141526
13 | 31:27.02 | 1:58.24 | 141527 | 150400
14 | 33:25.26 | 4:50.55 | 150401 | 172205
15 | 38:16.06 | 2:13.34 | 172206 | 182214
16 | 40:29.40 | 1:12.14 | 182215 | 187628
17 | 41:41.54 | 2:05.17 | 187629 | 197020
18 | 43:46.71 | 6:03.52 | 197021 | 224297
19 | 49:50.48 | 3:15.49 | 224298 | 238971
20 | 53:06.22 | 0:50.08 | 238972 | 242729
21 | 53:56.30 | 1:18.05 | 242730 | 248584
22 | 55:14.35 | 1:21.47 | 248585 | 254706
23 | 56:36.07 | 0:26.45 | 254707 | 256701
24 | 57:02.52 | 1:30.32 | 256702 | 263483
25 | 58:33.09 | 3:26.36 | 263484 | 278969
26 | 61:59.45 | 4:19.56 | 278970 | 298450

Характеристики диапазона извлечения и сообщения об ошибках

Выбранный диапазон

Имя файла C:\Певчая станица - Хвалите отроцы Господа.wav

Пиковый уровень 83.3 %
Качество диапазона 100.0 %
CRC копии 0DD3CD0B
Копирование... OK

Ошибок не произошло

Конец отчёта
Download

Войдите на сайт, чтобы увидеть полную информацию.

Как скачивать  ·   Правила трекера

[Профиль]  [ЛС] 

Артемий33

Стаж: 8 лет 2 месяца

Сообщений: 91

post 03-Ноя-2009 16:43 (спустя 1 месяц 1 день)

[Цитировать] 

Для Русского человека очень даже супер.
Спасибо.
[Профиль]  [ЛС] 

Танюша

Стаж: 8 лет 2 месяца

Сообщений: 46

Откуда: Санкт-Петербург

Russia

post 31-Дек-2009 17:09 (спустя 1 месяц 28 дней)

[Цитировать] 

У меня все получилось одним треком. Это не очень удобно.
А так песнопения хорошие.
[Профиль]  [ЛС] 

brd_eugene

Стаж: 8 лет 11 месяцев

Сообщений: 64

Ukraine

post 23-Окт-2010 01:24 (спустя 9 месяцев)

[Цитировать] 

Спаси Бог! Smile
[Профиль]  [ЛС] 

cantor

Стаж: 7 лет 8 месяцев

Сообщений: 5

Russia

post 16-Май-2011 01:14 (спустя 6 месяцев)

[Цитировать] 

Спасибо!
[Профиль]  [ЛС] 

vanish_k

Стаж: 5 лет 8 месяцев

Сообщений: 8

post 12-Мар-2012 19:59 (спустя 9 месяцев)

[Цитировать] 

Где же отроцы, пжл...

Спасибо! Жду вторую часть.
[Профиль]  [ЛС] 

st-0208

Стаж: 1 год 10 месяцев

Сообщений: 13

Russia

post 23-Дек-2015 21:17 (спустя 3 года 9 месяцев)

[Цитировать] 

Спасибо за раздачу! Обязательно скачаю.

_________________
Время, проведенное в на форуме, в счёт жизни не идёт.
[Профиль]  [ЛС] 

Wlad_login

Стаж: 9 месяцев

Сообщений: 2

Russia

post 02-Фев-2017 00:44 (спустя 1 год 1 месяц)

[Цитировать] 

Прошу вас, раздайте, пожалуйста, хочу послушать.
[Профиль]  [ЛС] 
Показать сообщения:    
Ответить на тему

Текущее время: 19-Ноя 16:04

Часовой пояс: GMT + 4



Вы не можете начинать темы
Вы не можете отвечать на сообщения
Вы не можете редактировать свои сообщения
Вы не можете удалять свои сообщения
Вы не можете голосовать в опросах
Вы не можете прикреплять файлы к сообщениям
Вы не можете скачивать файлы