Loading...
Error

(Колокольные звоны.) "Кижские звонари". (Игорь Архипов и Игорь Хуттер) - 2003, FLAC (tracks), lossless

Ответить на тему
Статистика раздачи
Скачали: [ 7 ]
   
 
Автор Сообщение

СЕРГУЛЕТ

Стаж: 8 лет 3 месяца

Сообщений: 2639

Откуда: LA ROMANA

Dominicanrep

post 05-Июл-2011 19:38

[Цитировать] 

"Кижские звонари". (Игорь Архипов и Игорь Хуттер)

pic
Страна: Россия.
Жанр: Колокольные звоны.
Год выпуска: 2003
Формат: FLAC (tracks)
Битрейт аудио: lossless
Продолжительность: 00:51:19
Трэклист:
Часовня Архангела Михаила (о. Кижи)
Track 01 - 03:04
Track 02 - 01:52

Собор св. Александра Невского (г. Петрозаводск) «Крестный ход на Антипасху»
Track 03 - 02:17
Track 04 - 01:23
Track 05 - 03:18
Track 06 - 01:43

Концертная звонница музея-заповедника Кижи
Track 07 - 03:20
Track 08 - 06:47
Track 09 - 06:08
Track 10 - 07:00
Track 11 - 06:16
Track 12 - 03:37
Track 13 - 04:29
Дополнительная информация: Компакт-диск, который Вы. уважаемый любитель русской колокольной музыки, держите в своих руках, - это своего рода итог пятнадцатилетней деятельности по возрождению уникальных Кижских (Онежских) колокольных звонов.
Являясь характерной разновидностью северорусской традиции церковных звонов. звоны кижские - яркая, запоминающаяся нота в безбрежном звуковом океане российской народной музыки. Колокола, инструменты, на которых они исполняются, - «звучащие иконы», один из важнейших символов Русской Православной Церкви. В Приладожье издревле сложилась самобытная школа звонарского мастерства, которая опиралась и опирается на развитые формы канонических церковных звонов, местный русский и карельский музыкальный фольклор и в полной мере использующая акустические и исполнительские возможности деревянных церковных и часовенных колоколен. Школе этой присуща особая система развески колоколов и особые приемы игры на них.
Северорусские колокольни, звоны кижские гармонично и естественно вписываются в окружающий природный и звуковой ландшафт, не разрушая, а обогащая его. Звоны, талантливо и молитвенно исполненные, - это звучание высших духовных и природных сфер, чистейшая экомузыка и, наконец, «глас Божий».
На компакт-диске представлено все многоголосие колокольной музыки: строгие уставные звоны, непосредственно связанные с богослужением, бережные интерпретации исторических русских звонов местных традиций, авторские композиции для колоколов с большой свободой самовыражения.
Авторы настоящего музыкального сборника — профессиональные звонари Игорь Архипов и Игорь Хуттер. Если первый пришел к колоколу как знаток народных музыкальных инструментов (И. Архипов является, в частности, музыкальным руководителем ансамбля «Тойве» ), то Игорь Хуттер начинал карьеру музыканта как церковный звонарь (Екатерининский храм Петрозаводска). Оба Игоря - выдающиеся представители северной (кижской) звонарской школы. Свыше десяти лет длящееся сотрудничество двух талантов дало яркие духовные всходы. Их стараниями возрождается колокольное искусство в Карелии, звучат звоны над Кижами, Петрозаводском на радость людям и во Славу Божию.
Старостенков С.А.,
Вице-президент Ассоциации колокольного искусство России.
EAC log
Exact Audio Copy V0.99 prebeta 4 from 23. January 2008

EAC extraction logfile from 29. July 2009, 17:37

Igor Arkhipov & Igor Hutter / Kizhi Bell Ringers

Used drive : Optiarc DVD RW AD-7201A Adapter: 1 ID: 0

Read mode : Secure
Utilize accurate stream : Yes
Defeat audio cache : Yes
Make use of C2 pointers : No

Read offset correction : 48
Overread into Lead-In and Lead-Out : No
Fill up missing offset samples with silence : Yes
Delete leading and trailing silent blocks : No
Null samples used in CRC calculations : Yes
Used interface : Native Win32 interface for Win NT & 2000
Gap handling : Appended to previous track

Used output format : User Defined Encoder
Selected bitrate : 32 kBit/s
Quality : High
Add ID3 tag : No
Command line compressor : C:\Program Files\Exact Audio Copy\FLAC\FLAC.EXE
Additional command line options : -8 -V -T "ARTIST=%a" -T "TITLE=%t" -T "ALBUM=%g" -T "DATE=%y" -T "TRACKNUMBER=%n" -T "GENRE=%m" -T "COMMENT=EAC FLAC -8" %s

TOC of the extracted CD

Track | Start | Length | Start sector | End sector
---------------------------------------------------------
1 | 0:00.00 | 3:04.18 | 0 | 13817
2 | 3:04.18 | 1:52.25 | 13818 | 22242
3 | 4:56.43 | 2:17.14 | 22243 | 32531
4 | 7:13.57 | 1:23.71 | 32532 | 38827
5 | 8:37.53 | 3:18.47 | 38828 | 53724
6 | 11:56.25 | 1:43.29 | 53725 | 61478
7 | 13:39.54 | 3:20.12 | 61479 | 76490
8 | 16:59.66 | 6:47.34 | 76491 | 107049
9 | 23:47.25 | 6:08.25 | 107050 | 134674
10 | 29:55.50 | 7:00.24 | 134675 | 166198
11 | 36:55.74 | 6:16.70 | 166199 | 194468
12 | 43:12.69 | 3:37.08 | 194469 | 210751
13 | 46:50.02 | 4:29.33 | 210752 | 230959

Track 1

Filename C:\Documents and Settings\User\Рабочий стол\Kizhi Bell Ringers\01 - Track01.wav

Pre-gap length 0:00:02.00

Peak level 96.5 %
Track quality 100.0 %
Test CRC BF5718FE
Copy CRC BF5718FE
Copy OK

Track 2

Filename C:\Documents and Settings\User\Рабочий стол\Kizhi Bell Ringers\02 - Track02.wav

Pre-gap length 0:00:02.00

Peak level 80.3 %
Track quality 100.0 %
Test CRC 2AC5AD60
Copy CRC 2AC5AD60
Copy OK

Track 3

Filename C:\Documents and Settings\User\Рабочий стол\Kizhi Bell Ringers\03 - Track03.wav

Pre-gap length 0:00:02.00

Peak level 96.5 %
Track quality 100.0 %
Test CRC 9F5C23A9
Copy CRC 9F5C23A9
Copy OK

Track 4

Filename C:\Documents and Settings\User\Рабочий стол\Kizhi Bell Ringers\04 - Track04.wav

Pre-gap length 0:00:02.00

Peak level 96.5 %
Track quality 100.0 %
Test CRC BE413FCA
Copy CRC BE413FCA
Copy OK

Track 5

Filename C:\Documents and Settings\User\Рабочий стол\Kizhi Bell Ringers\05 - Track05.wav

Pre-gap length 0:00:02.00

Peak level 96.6 %
Track quality 100.0 %
Test CRC 3D192E24
Copy CRC 3D192E24
Copy OK

Track 6

Filename C:\Documents and Settings\User\Рабочий стол\Kizhi Bell Ringers\06 - Track06.wav

Pre-gap length 0:00:02.00

Peak level 96.6 %
Track quality 100.0 %
Test CRC B3ED8500
Copy CRC B3ED8500
Copy OK

Track 7

Filename C:\Documents and Settings\User\Рабочий стол\Kizhi Bell Ringers\07 - Track07.wav

Peak level 96.6 %
Track quality 100.0 %
Test CRC 94CC2CA4
Copy CRC 94CC2CA4
Copy OK

Track 8

Filename C:\Documents and Settings\User\Рабочий стол\Kizhi Bell Ringers\08 - Track08.wav

Pre-gap length 0:00:02.00

Peak level 96.5 %
Track quality 99.9 %
Test CRC 927E0F76
Copy CRC 927E0F76
Copy OK

Track 9

Filename C:\Documents and Settings\User\Рабочий стол\Kizhi Bell Ringers\09 - Track09.wav

Peak level 96.5 %
Track quality 100.0 %
Test CRC 6DFAADDE
Copy CRC 6DFAADDE
Copy OK

Track 10

Filename C:\Documents and Settings\User\Рабочий стол\Kizhi Bell Ringers\10 - Track10.wav

Pre-gap length 0:00:02.00

Peak level 96.6 %
Track quality 100.0 %
Test CRC DB7B507D
Copy CRC DB7B507D
Copy OK

Track 11

Filename C:\Documents and Settings\User\Рабочий стол\Kizhi Bell Ringers\11 - Track11.wav

Pre-gap length 0:00:02.00

Peak level 96.5 %
Track quality 100.0 %
Test CRC 68A3281E
Copy CRC 68A3281E
Copy OK

Track 12

Filename C:\Documents and Settings\User\Рабочий стол\Kizhi Bell Ringers\12 - Track12.wav

Pre-gap length 0:00:02.00

Peak level 96.5 %
Track quality 100.0 %
Test CRC 3D59B004
Copy CRC 3D59B004
Copy OK

Track 13

Filename C:\Documents and Settings\User\Рабочий стол\Kizhi Bell Ringers\13 - Track13.wav

Pre-gap length 0:00:02.00

Peak level 96.5 %
Track quality 100.0 %
Test CRC 364C271C
Copy CRC 364C271C
Copy OK

No errors occurred

End of status report
Download

Войдите для скачивания торрент-файла

Как скачивать  ·   Правила трекера

[Профиль]  [ЛС] 

Владимир Лухов

Стаж: 6 лет 8 месяцев

Сообщений: 108

Откуда: Саратов

Russia

post 14-Июл-2011 12:55 (спустя 8 дней)

[Цитировать] 

Благодарю

_________________
С уважением. Владимир.
[Профиль]  [ЛС] 

vika010288

Стаж: 7 лет 10 месяцев

Сообщений: 459

Georgia

post 14-Июл-2011 22:31 (спустя 9 часов)

[Цитировать] 

Спасибо!
[Профиль]  [ЛС] 

Deyton

Стаж: 5 лет 10 месяцев

Сообщений: 23

Russia

post 03-Авг-2011 19:05 (спустя 19 дней)

[Цитировать] 

Большое спасибо
[Профиль]  [ЛС] 

komod

post 14-Авг-2011 15:34 (спустя 10 дней)

[Цитировать] 

Спасибо!
 

Sekd

post 26-Окт-2011 12:45 (спустя 2 месяца 11 дней)

[Цитировать] 

Спасибо!
 

gavrik.s

Стаж: 5 лет 4 месяца

Сообщений: 85

post 03-Янв-2012 20:13 (спустя 2 месяца 8 дней)

[Цитировать] 

Спасибо(кнопочка "спасибо" не помешала бы)
[Профиль]  [ЛС] 

SergeyP2008

post 16-Фев-2012 15:15 (спустя 1 месяц 12 дней)

[Цитировать] 

Спасибо!
 

Наталия sv

Стаж: 4 года 5 месяцев

Сообщений: 15

Ukraine

post 02-Дек-2012 17:43 (спустя 9 месяцев)

[Цитировать] 

Спаси Господи
[Профиль]  [ЛС] 

Александр Петренко

Стаж: 5 лет 3 месяца

Сообщений: 9

Откуда: Краснодарский край,Краснодар

Russia

post 12-Дек-2012 00:05 (спустя 9 дней)

[Цитировать] 

Спаси Господи!!! Ангела Хранителя!!!
[Профиль]  [ЛС] 

kristin.sokolova

Стаж: 1 год 9 месяцев

Сообщений: 4

Russia

post 15-Авг-2015 20:22 (спустя 2 года 8 месяцев)

[Цитировать] 

огромное спасибо!
[Профиль]  [ЛС] 

bav69u

Стаж: 1 год 6 месяцев

Сообщений: 1

Russia

post 31-Окт-2015 10:07 (спустя 2 месяца 15 дней)

[Цитировать] 

Благодарю!
[Профиль]  [ЛС] 

Basr

Стаж: 3 года 6 месяцев

Сообщений: 18

Ukraine

post 16-Май-2016 19:26 (спустя 6 месяцев)

[Цитировать] 

Большое спасибо!!!
[Профиль]  [ЛС] 
Показать сообщения:    
Ответить на тему

Текущее время: 23-Май 16:30

Часовой пояс: GMT + 4



Вы не можете начинать темы
Вы не можете отвечать на сообщения
Вы не можете редактировать свои сообщения
Вы не можете удалять свои сообщения
Вы не можете голосовать в опросах
Вы не можете прикреплять файлы к сообщениям
Вы не можете скачивать файлы