Loading...
Error

(Церковная музыка и церковные хоры (lossless)) "Прииди, Свет Истинный". Божественные гимны преподобного Симеона Нового Богослова. (X-XI в. Византия). - 2002, APE (image + .cue), lossless

Ответить на тему
Статистика раздачи
   
 
Автор Сообщение

СЕРГУЛЕТ

Стаж: 8 лет 8 месяцев

Сообщений: 2640

Откуда: LA ROMANA

Dominicanrep

post 01-Окт-2009 22:53

[Цитировать] 

"Прииди, Свет Истинный". Божественные гимны преподобного Симеона Нового Богослова. (X-XI в. Византия).

pic
Страна: Россия. Епископ Иларион(Алфеев) & Анатолий Конотоп.
Жанр: Церковная музыка и церковные хоры (lossless)
Год выпуска: 2002
Формат: APE (image + .cue)
Битрейт аудио: lossless
Продолжительность: 01:18:32
Содержание :
1. "Монах есть тот, кто миру не причастен..." . .1:12
2. Четверостишия о любви к Богу...........0:59
3. Моление Богу.........................3:22
4. "Услышав печальную весть, ужасаюсь..." . . .1:12
5. "Что за новое чудо совершается ныне?.." . . .6:58
6. "Начало жизни для меня - конец...".......15:09
7. "Слава, честь, хвала и гимны..."..........16:07
8. О точнейшем богословии . . ..............8:29
9. "Тень меня покрывает..."................0:58
10. Общее наставление с обличением .......21:29
11. Путь к созерцанию Божественного света . .2:35
Обложки+Содержание
picpicpic
EAC log
Exact Audio Copy V0.99 prebeta 5 from 4. May 2009

Отчёт EAC об извлечении, выполненном 1. октября 2009, 20:26

Епископ Иларион(Алфеев) / Прийди, Свет Истинный

Дисковод: ASUS BC-1205PT Adapter: 1 ID: 0

Режим чтения : Достоверность
Использование точного потока : Да
Отключение кэша аудио : Да
Использование указателей C2 : Нет

Коррекция смещения при чтении : 667
Способность читать области Lead-in и Lead-out : Нет
Заполнение пропущенных сэмплов тишиной : Да
Удаление блоков с тишиной в начале и конце : Нет
При вычислениях CRC использовались нулевые сэмплы : Да
Интерфейс : Встроенный Win32-интерфейс для Win NT/2000

Выходной формат : Внутренние WAV-операции
Формат сэмплов : 44.100 Гц; 16 бит; стерео

TOC извлечённого CD

Трек | Старт | Длительность | Начальный сектор | Конечный сектор
---------------------------------------------------------------------
1 | 0:00.00 | 1:12.51 | 0 | 5450
2 | 1:12.51 | 0:58.47 | 5451 | 9847
3 | 2:11.23 | 3:22.46 | 9848 | 25043
4 | 5:33.69 | 1:12.02 | 25044 | 30445
5 | 6:45.71 | 6:57.48 | 30446 | 61768
6 | 13:43.44 | 15:08.42 | 61769 | 129910
7 | 28:52.11 | 16:07.27 | 129911 | 202462
8 | 44:59.38 | 8:29.09 | 202463 | 240646
9 | 53:28.47 | 0:57.38 | 240647 | 244959
10 | 54:26.10 | 21:29.08 | 244960 | 341642
11 | 75:55.18 | 2:35.19 | 341643 | 353286

Характеристики диапазона извлечения и сообщения об ошибках

Выбранный диапазон

Имя файла C:\Епископ Иларион(Алфеев) - Прийди, Свет Истинный.wav

Пиковый уровень 98.9 %
Качество диапазона 100.0 %
CRC копии 8C1BE0A2
Копирование... OK

Ошибок не произошло

Конец отчёта
Download

Войдите на сайт, чтобы увидеть полную информацию.

Как скачивать  ·   Правила трекера

[Профиль]  [ЛС] 

neosacred

Стаж: 2 года 7 месяцев

Сообщений: 4

post 30-Окт-2015 01:35 (спустя 6 лет)

[Цитировать] 

Благодарю...
[Профиль]  [ЛС] 

Dubav

Стаж: 1 год 4 месяца

Сообщений: 10

Mongolia

post 19-Июн-2016 10:06 (спустя 7 месяцев)

[Цитировать] 

Спасибо
[Профиль]  [ЛС] 

Nathan

Стаж: 7 лет 11 месяцев

Сообщений: 18

Ussr

post 15-Авг-2016 14:59 (спустя 1 месяц 26 дней)

[Цитировать] 

огромное спасибо!
[Профиль]  [ЛС] 

a1bllll

Стаж: 6 лет 8 месяцев

Сообщений: 358

Russia

post 30-Авг-2016 23:46 (спустя 15 дней)

[Цитировать] 

Спаси Вас Бог!!!

_________________
Слава Богу за всё!
[Профиль]  [ЛС] 

TRAFIK

Стаж: 6 месяцев

Сообщений: 7

Ussr

post 10-Апр-2017 21:34 (спустя 7 месяцев)

[Цитировать] 

Пожалуйста, дайте немного раздачи, спасибо!
[Профиль]  [ЛС] 
Показать сообщения:    
Ответить на тему

Текущее время: 22-Окт 21:34

Часовой пояс: GMT + 4



Вы не можете начинать темы
Вы не можете отвечать на сообщения
Вы не можете редактировать свои сообщения
Вы не можете удалять свои сообщения
Вы не можете голосовать в опросах
Вы не можете прикреплять файлы к сообщениям
Вы не можете скачивать файлы