Loading...
Error

(Церковная музыка Греции, Афона и Сербии (lossless)) "Песнопения Утрени". Хор монахов монастыря Симонопетра. Святая Гора Афон. - 2004, APE (image + .cue), lossless

Ответить на тему
Статистика раздачи
Скачали: [ 11 ]
   
 
Автор Сообщение

СЕРГУЛЕТ

Стаж: 8 лет

Сообщений: 2639

Откуда: LA ROMANA

Dominicanrep

post 22-Дек-2009 09:25

[Цитировать] 

"Песнопения Утрени". Хор монахов монастыря Симонопетра. Святая Гора Афон.

pic
Страна: Россия. ООО "Дисам".
Жанр: Церковная музыка Греции, Афона и Сербии (lossless)
Год выпуска: 2004
Формат: APE (image + .cue)
Битрейт аудио: lossless
Продолжительность: 01:13:10
Обложки+Содержание
picpicpic
EAC log
Exact Audio Copy V0.99 prebeta 5 from 4. May 2009

Отчёт EAC об извлечении, выполненном 21. декабря 2009, 20:48

Monaxoi tis I.M. Simonopetras / Orthros

Дисковод: ASUS BC-1205PT Adapter: 1 ID: 0

Режим чтения : Достоверность
Использование точного потока : Да
Отключение кэша аудио : Да
Использование указателей C2 : Нет

Коррекция смещения при чтении : 667
Способность читать области Lead-in и Lead-out : Нет
Заполнение пропущенных сэмплов тишиной : Да
Удаление блоков с тишиной в начале и конце : Нет
При вычислениях CRC использовались нулевые сэмплы : Да
Интерфейс : Встроенный Win32-интерфейс для Win NT/2000

Выходной формат : Внутренние WAV-операции
Формат сэмплов : 44.100 Гц; 16 бит; стерео

TOC извлечённого CD

Трек | Старт | Длительность | Начальный сектор | Конечный сектор
---------------------------------------------------------------------
1 | 0:00.00 | 5:04.60 | 0 | 22859
2 | 5:04.60 | 13:01.03 | 22860 | 81437
3 | 18:05.63 | 8:28.03 | 81438 | 119540
4 | 26:33.66 | 6:36.47 | 119541 | 149287
5 | 33:10.38 | 6:31.74 | 149288 | 178686
6 | 39:42.37 | 3:28.08 | 178687 | 194294
7 | 43:10.45 | 7:21.06 | 194295 | 227375
8 | 50:31.51 | 3:02.40 | 227376 | 241065
9 | 53:34.16 | 2:59.02 | 241066 | 254492
10 | 56:33.18 | 4:13.68 | 254493 | 273535
11 | 60:47.11 | 12:20.69 | 273536 | 329104

Характеристики диапазона извлечения и сообщения об ошибках

Выбранный диапазон

Имя файла C:\Monaxoi tis I.M. Simonopetras - Orthros.wav

Пиковый уровень 100.0 %
Качество диапазона 100.0 %
CRC копии F4EF583A
Копирование... OK

Ошибок не произошло

AccurateRip: сводка
Трек 1 точность не определена (достоверность 1) [2FCB2AF3], AccurateRip вернул [FBC68B53]
Трек 2 точность не определена (достоверность 1) [17D664CA], AccurateRip вернул [572DB227]
Трек 3 точность не определена (достоверность 1) [CB975119], AccurateRip вернул [0A732A8C]
Трек 4 точность не определена (достоверность 1) [166D60E5], AccurateRip вернул [F5C6492D]
Трек 5 точность не определена (достоверность 1) [C3AA291E], AccurateRip вернул [DABD697F]
Трек 6 точность не определена (достоверность 1) [2291C03D], AccurateRip вернул [FCDD2838]
Трек 7 точность не определена (достоверность 1) [EEAFC012], AccurateRip вернул [71DF7F72]
Трек 8 точность не определена (достоверность 1) [F5D5EDB3], AccurateRip вернул [C1C623F5]
Трек 9 точность не определена (достоверность 1) [E207D3D6], AccurateRip вернул [EBF6F3E4]
Трек 10 точность не определена (достоверность 1) [D881034F], AccurateRip вернул [707B89A4]
Трек 11 точность не определена (достоверность 1) [0B7437D1], AccurateRip вернул [476B6242]
Ни один трек не прошёл проверки на точность
В вашей базе может быть иной вариант штамповки диска

Конец отчёта
Download

Войдите для скачивания торрент-файла

Как скачивать  ·   Правила трекера

[Профиль]  [ЛС] 

zelpo

post 26-Янв-2013 05:50 (спустя 3 года 1 месяц)

[Цитировать] 

Спасибо!
 

Tabaka_S

Стаж: 4 года 8 месяцев

Сообщений: 2

post 12-Авг-2014 19:40 (спустя 1 год 6 месяцев)

[Цитировать] 

Спасибо!
[Профиль]  [ЛС] 

_sunday

Стаж: 1 год 4 месяца

Сообщений: 5

Serbia

post 18-Окт-2015 20:36 (спустя 1 год 2 месяца)

[Цитировать] 

Спасибо!
[Профиль]  [ЛС] 
Показать сообщения:    
Ответить на тему

Текущее время: 19-Фев 20:30

Часовой пояс: GMT + 4



Вы не можете начинать темы
Вы не можете отвечать на сообщения
Вы не можете редактировать свои сообщения
Вы не можете удалять свои сообщения
Вы не можете голосовать в опросах
Вы не можете прикреплять файлы к сообщениям
Вы не можете скачивать файлы