Loading...
Error

"Дивна. Живоносный источник". (2 DVD+CD). [2011 г., Песни авторов и исполнителей., DVD5]

Ответить на тему
Статистика раздачи
   
 
Автор Сообщение

СЕРГУЛЕТ

Стаж: 13 лет

Сообщений: 2637

Откуда: LA ROMANA

Dominicanrep

post 17-Июн-2011 12:00

[Цитировать] 

"Дивна. Живоносный источник". (2 DVD+CD).

pic
Год выпуска: 2011
Страна: Украина. Рождества Пресвятой Богородицы "Десятинный" мужской монастырь.
Жанр: Песни авторов и исполнителей.
Продолжительность: 01:05:26+00:49:28+00:29:17(CD).
Обложка диска+Описание
pic
1DVD: Православный воин. (Фильм посвященный 150-летию образованию Крымской Епархии).
2DVD: Живоносный источник. (Клипы Дивны Любоевич).
1CD: Живоносный источник.

Качество: DVD5
Формат: DVD Video
Видео кодек: MPEG2
Аудио кодек: AC3
Видео: 9500 Кбит/сек, 720*576 (4:3), в 25,000 кадр/сек, MPEG Video (PAL) (Version 2) (Main@Main) (BVOP)
Аудио: 192 Кбит/сек, 48,0 КГц, 16 бит, 2 канала(ов), AC-3

Параметры CD:
Формат: APE (image + .cue)
Битрейт аудио: lossless
Продолжительность: 00:29:17.
EAC log
Exact Audio Copy V0.99 prebeta 5 from 4. May 2009

Отчёт EAC об извлечении, выполненном 17. июня 2011, 11:33

Дивна / Живодайне джерело

Дисковод: ASUS DRW-2014L1T Adapter: 2 ID: 1

Режим чтения : Достоверность
Использование точного потока : Да
Отключение кэша аудио : Да
Использование указателей C2 : Нет

Коррекция смещения при чтении : 6
Способность читать области Lead-in и Lead-out : Нет
Заполнение пропущенных сэмплов тишиной : Да
Удаление блоков с тишиной в начале и конце : Нет
При вычислениях CRC использовались нулевые сэмплы : Да
Интерфейс : Встроенный Win32-интерфейс для Win NT/2000

Выходной формат : Внутренние WAV-операции
Формат сэмплов : 44.100 Гц; 16 бит; стерео

TOC извлечённого CD

Трек | Старт | Длительность | Начальный сектор | Конечный сектор
---------------------------------------------------------------------
1 | 0:00.00 | 1:43.09 | 0 | 7733
2 | 1:43.09 | 2:22.18 | 7734 | 18401
3 | 4:05.27 | 4:20.00 | 18402 | 37901
4 | 8:25.27 | 5:25.63 | 37902 | 62339
5 | 13:51.15 | 1:29.34 | 62340 | 69048
6 | 15:20.49 | 3:37.04 | 69049 | 85327
7 | 18:57.53 | 1:03.38 | 85328 | 90090
8 | 20:01.16 | 3:00.19 | 90091 | 103609
9 | 23:01.35 | 1:40.59 | 103610 | 111168
10 | 24:42.19 | 1:53.32 | 111169 | 119675
11 | 26:35.51 | 1:40.32 | 119676 | 127207
12 | 28:16.08 | 1:01.64 | 127208 | 131846

Характеристики диапазона извлечения и сообщения об ошибках

Выбранный диапазон

Имя файла C:\Users\Сергей\Desktop\Дивна - Живодайне джерело.wav

Пиковый уровень 99.7 %
Качество диапазона 99.9 %
CRC копии 3BF3CB35
Копирование... OK

Ошибок не произошло

AccurateRip: сводка
Трек 1 нет в базе данных
Трек 2 нет в базе данных
Трек 3 нет в базе данных
Трек 4 нет в базе данных
Трек 5 нет в базе данных
Трек 6 нет в базе данных
Трек 7 нет в базе данных
Трек 8 нет в базе данных
Трек 9 нет в базе данных
Трек 10 нет в базе данных
Трек 11 нет в базе данных
Трек 12 нет в базе данных
Ни одного трека нет в базе AccurateRip

Конец отчёта
Cкриншоты
picpicpicpicpic
Download

Войдите на сайт, чтобы увидеть полную информацию.

Как скачивать  ·   Правила трекера



Последний раз редактировалось: СЕРГУЛЕТ (2011-06-17 12:19), всего редактировалось 3 раз(а)
[Профиль]  [ЛС] 

Damian

Стаж: 12 лет

Сообщений: 1830

Откуда: Донбасс

Russia

post 17-Июн-2011 12:05 (спустя 5 минут)

[Цитировать] 

Спаси Господи!
Опередил меня брат СЕРГУЛЕТ,только хотел выложить Neutral
Слава Богу за всё!

_________________
Помолимся!
[Профиль]  [ЛС] 

Игорь Пибаев

Стаж: 12 лет

Сообщений: 203

Russia

post 17-Июн-2011 13:13 (спустя 1 час 8 минут)

[Цитировать] 

Благодарность и низкий поклон! Но на простой диск не записать, к сожалению...
[Профиль]  [ЛС] 

Халкидон

Стаж: 13 лет

Сообщений: 248

Kazakhstan

post 17-Июн-2011 16:18 (спустя 3 часа)

[Цитировать] 

Это Дивна Любоевич?

_________________
pic
"Православие" пишется с большой буквы!!! http://www.bogoslov.ru/text/665293/index.html
http://tvspas.ru/resurs/
[Профиль]  [ЛС] 

stepan-frunze

Стаж: 13 лет

Сообщений: 2563

Russia

post 16-Мар-2013 17:39 (спустя 1 год 8 месяцев)

[Цитировать] 

Спаси Господи!
[Профиль]  [ЛС] 

uk9cbd

Стаж: 8 лет 4 месяца

Сообщений: 143

Russia

post 08-Апр-2014 17:59 (спустя 1 год)

[Цитировать] 

Спаси, Господи!

_________________
Мир всем...
[Профиль]  [ЛС] 

Михаил Чирков

Стаж: 8 лет 7 месяцев

Сообщений: 9

Откуда: Уфа

Russia

post 08-Окт-2015 18:12 (спустя 1 год 6 месяцев)

[Цитировать] 

Спаси, Господи, за труды
[Профиль]  [ЛС] 

Gala277

Стаж: 6 лет 5 месяцев

Сообщений: 165

Russia

post 27-Июл-2016 20:41 (спустя 9 месяцев)

[Цитировать] 

Спасибо большое! Спаси Вас БОГ!
[Профиль]  [ЛС] 
Показать сообщения:    
Ответить на тему

Текущее время: 09-Авг 15:32

Часовой пояс: GMT + 4



Вы не можете начинать темы
Вы не можете отвечать на сообщения
Вы не можете редактировать свои сообщения
Вы не можете удалять свои сообщения
Вы не можете голосовать в опросах
Вы не можете прикреплять файлы к сообщениям
Вы не можете скачивать файлы