Loading...
Error

(Церковная музыка и церковные хоры (lossless).) "Святая Пасха". Из службы Воскресения Христова. Поет братский хор Ватопедского монастыря. - 2002, APE (image + .cue), lossless

Ответить на тему
Статистика раздачи
   
 
Автор Сообщение

СЕРГУЛЕТ

Стаж: 8 лет 7 месяцев

Сообщений: 2640

Откуда: LA ROMANA

Dominicanrep

post 22-Окт-2009 23:40

[Цитировать] 

"Святая Пасха". Из службы Воскресения Христова. Поет братский хор Ватопедского монастыря.

pic
Страна: Россия. Московское Подворье Свято-Троицкой Сергиевой Лавры.
Жанр: Церковная музыка и церковные хоры (lossless).
Год выпуска: 2002
Формат: APE (image + .cue)
Битрейт аудио: lossless
Продолжительность: 01:18:52
Обложки+Содержание
picpicpic
EAC log
Exact Audio Copy V0.99 prebeta 5 from 4. May 2009

Отчёт EAC об извлечении, выполненном 22. октября 2009, 23:09

Хор монастыря Ватопед / Святая Пасха

Дисковод: ASUS BC-1205PT Adapter: 1 ID: 0

Режим чтения : Достоверность
Использование точного потока : Да
Отключение кэша аудио : Да
Использование указателей C2 : Нет

Коррекция смещения при чтении : 667
Способность читать области Lead-in и Lead-out : Нет
Заполнение пропущенных сэмплов тишиной : Да
Удаление блоков с тишиной в начале и конце : Нет
При вычислениях CRC использовались нулевые сэмплы : Да
Интерфейс : Встроенный Win32-интерфейс для Win NT/2000

Выходной формат : Внутренние WAV-операции
Формат сэмплов : 44.100 Гц; 16 бит; стерео

TOC извлечённого CD

Трек | Старт | Длительность | Начальный сектор | Конечный сектор
---------------------------------------------------------------------
1 | 0:00.00 | 3:40.40 | 0 | 16539
2 | 3:40.40 | 3:34.20 | 16540 | 32609
3 | 7:14.60 | 3:04.37 | 32610 | 46446
4 | 10:19.22 | 0:31.58 | 46447 | 48829
5 | 10:51.05 | 4:15.50 | 48830 | 68004
6 | 15:06.55 | 3:10.35 | 68005 | 82289
7 | 18:17.15 | 3:13.07 | 82290 | 96771
8 | 21:30.22 | 3:00.35 | 96772 | 110306
9 | 24:30.57 | 4:28.23 | 110307 | 130429
10 | 28:59.05 | 4:34.52 | 130430 | 151031
11 | 33:33.57 | 5:53.08 | 151032 | 177514
12 | 39:26.65 | 4:08.67 | 177515 | 196181
13 | 43:35.57 | 14:10.73 | 196182 | 260004
14 | 57:46.55 | 15:08.35 | 260005 | 328139
15 | 72:55.15 | 5:55.15 | 328140 | 354779

Характеристики диапазона извлечения и сообщения об ошибках

Выбранный диапазон

Имя файла C:\Хор монастыря Ватопед - Святая Пасха.wav

Пиковый уровень 97.7 %
Качество диапазона 100.0 %
CRC копии 466A9279
Копирование... OK

Ошибок не произошло
Конец отчёта
Download

Войдите на сайт, чтобы увидеть полную информацию.

Как скачивать  ·   Правила трекера



Последний раз редактировалось: СЕРГУЛЕТ (2010-03-16 08:03), всего редактировалось 2 раз(а)
[Профиль]  [ЛС] 

Владислав

post 25-Окт-2009 12:10 (спустя 2 дня 12 часов)

[Цитировать] 

Не вижу обложки.Разместите пожалуйста,или киньте в личку.
 

AnCoraki

post 29-Мар-2010 02:33 (спустя 5 месяцев 3 дня)

[Цитировать] 

Простите. Не указан язык, на котором исполняются песнопения. Не могли бы Вы уточнить: сербский или греческий?
 

СЕРГУЛЕТ

Стаж: 8 лет 7 месяцев

Сообщений: 2640

Откуда: LA ROMANA

Dominicanrep

post 29-Мар-2010 08:49 (спустя 6 часов)

[Цитировать] 

AnCoraki
Греческий.
[Профиль]  [ЛС] 

igorek23

Стаж: 7 лет 2 месяца

Сообщений: 12

Ukraine

post 23-Авг-2010 11:37 (спустя 4 месяца 25 дней)

[Цитировать] 

Станьте кто-нибудь на раздачу. Спаси Вас Господи
[Профиль]  [ЛС] 

igorek23

Стаж: 7 лет 2 месяца

Сообщений: 12

Ukraine

post 28-Авг-2010 12:51 (спустя 5 дней)

[Цитировать] 

Осталось 50% и уже 5 дней никаких продвижений.Не знаю зачем начал скачивать, а ведь знал ,что так и будет.Ауууууууууууууууууууууууу сид ты где?
[Профиль]  [ЛС] 

igorek23

Стаж: 7 лет 2 месяца

Сообщений: 12

Ukraine

post 28-Авг-2010 12:55 (спустя 3 минуты)

[Цитировать] 

Хоть напишите когда буле кто-нибудь на раздаче.Спаси Вас Господи.
[Профиль]  [ЛС] 

simrik

Стаж: 8 лет 1 месяц

Сообщений: 72

Откуда: киев

Ukraine

post 16-Апр-2012 00:50 (спустя 1 год 7 месяцев)

[Цитировать] 

Христос Воскресе!!!:
[Профиль]  [ЛС] 

vika010288

Стаж: 8 лет 2 месяца

Сообщений: 458

Georgia

post 20-Апр-2012 01:20 (спустя 4 дня)

[Цитировать] 

Христос Воскресе!!!
[Профиль]  [ЛС] 

Alex Sag

Стаж: 8 лет 3 месяца

Сообщений: 281

Kazakhstan

post 01-Окт-2015 17:08 (спустя 3 года 5 месяцев)

[Цитировать] 

Спаси Господи! Благодарю!

_________________
Alexey
[Профиль]  [ЛС] 
Показать сообщения:    
Ответить на тему

Текущее время: 20-Сен 22:08

Часовой пояс: GMT + 4



Вы не можете начинать темы
Вы не можете отвечать на сообщения
Вы не можете редактировать свои сообщения
Вы не можете удалять свои сообщения
Вы не можете голосовать в опросах
Вы не можете прикреплять файлы к сообщениям
Вы не можете скачивать файлы