Loading...
Error

(Церковная музыка Греции, Афона и Сербии (lossless).) "Божественная Литургия". Хор монахов монастыря Симонопетра. Святая Гора Афон. - 2004, APE (image + .cue), lossless

Ответить на тему
Статистика раздачи
   
 
Автор Сообщение

СЕРГУЛЕТ

Стаж: 8 лет 9 месяцев

Сообщений: 2640

Откуда: LA ROMANA

Dominicanrep

post 22-Дек-2009 00:52

[Цитировать] 

"Божественная Литургия". Хор монахов монастыря Симонопетра. Святая Гора Афон.

pic
Страна: Россия. ООО "Дисам".
Жанр: Церковная музыка Греции, Афона и Сербии (lossless).
Год выпуска: 2004
Формат: APE (image + .cue)
Битрейт аудио: lossless
Продолжительность: 00:53:04
Обложки+Содержание
picpicpic
EAC log
Exact Audio Copy V0.99 prebeta 5 from 4. May 2009

Отчёт EAC об извлечении, выполненном 21. декабря 2009, 20:21

Хор монахов монастыря Симонопетра, Святая Гора Афон / Божественная Литургия

Дисковод: ASUS BC-1205PT Adapter: 1 ID: 0

Режим чтения : Достоверность
Использование точного потока : Да
Отключение кэша аудио : Да
Использование указателей C2 : Нет

Коррекция смещения при чтении : 667
Способность читать области Lead-in и Lead-out : Нет
Заполнение пропущенных сэмплов тишиной : Да
Удаление блоков с тишиной в начале и конце : Нет
При вычислениях CRC использовались нулевые сэмплы : Да
Интерфейс : Встроенный Win32-интерфейс для Win NT/2000

Выходной формат : Внутренние WAV-операции
Формат сэмплов : 44.100 Гц; 16 бит; стерео

TOC извлечённого CD

Трек | Старт | Длительность | Начальный сектор | Конечный сектор
---------------------------------------------------------------------
1 | 0:00.00 | 6:54.21 | 0 | 31070
2 | 6:54.21 | 8:43.26 | 31071 | 70321
3 | 15:37.47 | 6:32.61 | 70322 | 99782
4 | 22:10.33 | 12:36.62 | 99783 | 156544
5 | 34:47.20 | 3:50.00 | 156545 | 173794
6 | 38:37.20 | 2:14.60 | 173795 | 183904
7 | 40:52.05 | 7:56.17 | 183905 | 219621
8 | 48:48.22 | 1:07.17 | 219622 | 224663
9 | 49:55.39 | 0:28.36 | 224664 | 226799
10 | 50:24.00 | 2:38.65 | 226800 | 238714

Характеристики диапазона извлечения и сообщения об ошибках

Выбранный диапазон

Имя файла C:\Хор монахов монастыря Симонопетра, Святая Гора Афон - Божественная Литургия.wav

Пиковый уровень 94.4 %
Качество диапазона 99.9 %
CRC копии 520F11E0
Копирование... OK

Ошибок не произошло

AccurateRip: сводка
Трек 1 нет в базе данных
Трек 2 нет в базе данных
Трек 3 нет в базе данных
Трек 4 нет в базе данных
Трек 5 нет в базе данных
Трек 6 нет в базе данных
Трек 7 нет в базе данных
Трек 8 нет в базе данных
Трек 9 нет в базе данных
Трек 10 нет в базе данных
Ни одного трека нет в базе AccurateRip

Конец отчёта
Download

Войдите на сайт, чтобы увидеть полную информацию.

Как скачивать  ·   Правила трекера

[Профиль]  [ЛС] 

Alex Sag

Стаж: 8 лет 5 месяцев

Сообщений: 281

Kazakhstan

post 18-Мар-2013 21:16 (спустя 3 года 2 месяца)

[Цитировать] 

Спаси Господи!

_________________
Alexey
[Профиль]  [ЛС] 

aleks066729

Стаж: 8 лет 7 месяцев

Сообщений: 5

post 12-Сен-2015 22:32 (спустя 2 года 5 месяцев)

[Цитировать] 

Спасибо автору раздачи. Остался 1 сид.
[Профиль]  [ЛС] 

Михаил Кернаценский

Стаж: 6 лет 3 месяца

Сообщений: 15

post 15-Окт-2015 14:39 (спустя 1 месяц 2 дня)

[Цитировать] 

Прошу раздайте пожалуйста. Обязуюсь стоять на раздаче месяц.
[Профиль]  [ЛС] 
Показать сообщения:    
Ответить на тему

Текущее время: 22-Ноя 07:52

Часовой пояс: GMT + 4



Вы не можете начинать темы
Вы не можете отвечать на сообщения
Вы не можете редактировать свои сообщения
Вы не можете удалять свои сообщения
Вы не можете голосовать в опросах
Вы не можете прикреплять файлы к сообщениям
Вы не можете скачивать файлы