Loading...
Error

(Церковное пение)Мужской хор под управлением Н. Носова - Древнерусские церковные песнопения семнадцатого века - 2002, APE (image+ - 2002, APE (image + .cue), lossless

Ответить на тему
Статистика раздачи
   
 
Автор Сообщение

Гость

post 30-Ноя-2009 15:54

[Цитировать] 

Мужской хор под управлением Н. Носова - Древнерусские церковные песнопения семнадцатого века
pic
Страна: Россия
Жанр: Церковное пение
Год выпуска: 2002
Формат: APE (image + .cue)
Битрейт аудио: lossless
Продолжительность: 01:10:58
Наличие сканов: нет
Трэклист:
01. Достойно есть… Диакон Николай Парусников
02. Тон Деспотин... Знаменный распев Исполла эти… Заключительное демество
03. Великая ектения... Протодиакон Павел Смирнов
04. Единородный Сыне...
05. Снедию изведе из рая... Блаженна 1-го гласа
06. Приидите, поклонимся...
07. Камени запечатану... Воскресный тропарь 1-го гласа, знаменный распев
08. Возбранной Воеводе...
09. Святый Боже...
10. Буди, Господи, милость… Прокимен 1-го гласа, знаменный распев. Иеродиакон Иосиф Дьяченко
11. Аллилуиа... Иеродиакон Иосиф Дьяченко
12. Херувимская песнь
13. Просительная ектения, Протодиакон Павел Смирнов
14. Отца и Сына… Знаменный распев из старообрядческой рукописи
15. Милость мира… Знаменный распев
16. Достойно есть...
17. Един Свят… Знаменный распев
18. Хвалите Господа с небес… Причастен. Знаменный распев
19. Тело Христово… Причастен. Реставрация Н. Носова
20. Видехом свет истинный...
21. Да исполнятся...
22. Малая ектения. Протодиакон Павел Смирнов
23. Буди имя Господне...
24. Многолетны
EAC log
Exact Audio Copy V0.99 prebeta 4 from 23. January 2008

Отчёт EAC об извлечении, выполненном 11. января 2009, 23:45

Мужской хор под управлением Н. Носова / Древнерусские церковные песнопения семнадцатого века

Дисковод: PLEXTOR DVD-ROM PX-116A Adapter: 1 ID: 1

Режим чтения : Достоверность
Использование точного потока : Да
Отключение кэша аудио : Да
Использование указателей C2 : Нет

Коррекция смещения при чтении : 691
Способность читать области Lead-in и Lead-out : Нет
Заполнение пропущенных сэмплов тишиной : Да
Удаление блоков с тишиной в начале и конце : Нет
При вычислениях CRC использовались нулевые сэмплы : Да
Интерфейс : Встроенный Win32-интерфейс для Win NT/2000

Выходной формат : Внутренние WAV-операции
Формат сэмплов : 44.100 Гц; 16 бит; стерео

TOC извлечённого CD

Трек | Старт | Длительность | Начальный сектор | Конечный сектор
---------------------------------------------------------------------
1 | 0:00.00 | 5:23.17 | 0 | 24241
2 | 5:23.17 | 1:00.69 | 24242 | 28810
3 | 6:24.11 | 5:21.06 | 28811 | 52891
4 | 11:45.17 | 2:33.10 | 52892 | 64376
5 | 14:18.27 | 3:26.68 | 64377 | 79894
6 | 17:45.20 | 0:56.59 | 79895 | 84153
7 | 18:42.04 | 2:11.14 | 84154 | 93992
8 | 20:53.18 | 1:48.39 | 93993 | 102131
9 | 22:41.57 | 3:23.53 | 102132 | 117409
10 | 26:05.35 | 1:17.34 | 117410 | 123218
11 | 27:22.69 | 1:53.11 | 123219 | 131704
12 | 29:16.05 | 10:39.55 | 131705 | 179684
13 | 39:55.60 | 4:58.29 | 179685 | 202063
14 | 44:54.14 | 1:03.37 | 202064 | 206825
15 | 45:57.51 | 6:05.66 | 206826 | 234266
16 | 52:03.42 | 3:37.13 | 234267 | 250554
17 | 55:40.55 | 0:43.07 | 250555 | 253786
18 | 56:23.62 | 3:23.25 | 253787 | 269036
19 | 59:47.12 | 3:42.51 | 269037 | 285737
20 | 63:29.63 | 0:51.26 | 285738 | 289588
21 | 64:21.14 | 1:17.23 | 289589 | 295386
22 | 65:38.37 | 2:16.23 | 295387 | 305609
23 | 67:54.60 | 0:54.25 | 305610 | 309684
24 | 68:49.10 | 2:08.43 | 309685 | 319327

Характеристики диапазона извлечения и сообщения об ошибках

Выбранный диапазон

Имя файла C:\Documents and Settings\e\Рабочий стол\m\Мужской хор под управлением Н. Носова - Древнерусские церковные песнопения семнадцатого века.wav

Пиковый уровень 99.1 %
Качество диапазона 100.0 %
CRC копии BD943D4D
Копирование... OK

Ошибок не произошло

Конец отчёта

Обложки и содержание
picpic

Дополнительная информация
Расшифровка: Е. Шавохиной (4, 6, 9, 11, 16, 19, 21)
Расшифровка: И. Ефимовой (1, 8, 12, 24)
Транскрипция: И. Ефимовой (3, 5, 13, 20, 22, 23)
Синодальный обиход: (2, 7, 10, 15, 17, 18)
Знаменное многоголосие: (1, 4, 6, 8, 9, 11, 12, 16, 19, 21, 24)
Демественное многоголосие: (3, 5, 13, 20, 22, 23)

Мужской хор сотрудников Издательского отдела Московского Патриархата под управлением Н.Носова
Звукорежиссеры Н. Дивакова, А. Шатов 1987

Издается по благословению Святейшего Патриарха Московского и всея Руси Алексия II
Древнерусские церковные песнопения семнадцатого века
Фрагменты литургии. Раннее многоголосие

Download

Войдите на сайт, чтобы увидеть полную информацию.

Как скачивать  ·   Правила трекера



Последний раз редактировалось: Гость (2009-12-01 21:58), всего редактировалось 5 раз(а)
 

Academic Crack

Администратор

Стаж: 13 лет

Сообщений: 2082

Russia

post 01-Дек-2009 03:53 (спустя 11 часов)

[Цитировать] 

О том, как избавиться от ошибки Invalid info_hash, читайте в предпоследнем спойлере вот этого топика:
Arrow Основной FAQ по трекеру

_________________
pic
pic 100 Мбит/с, pic 100 Мбит/с.
Исправили раздачу? Пишите в личку со ссылкой на раздачу.
[Профиль]  [ЛС] 

brd_eugene

Стаж: 13 лет

Сообщений: 64

Ukraine

post 23-Окт-2010 01:25 (спустя 10 месяцев)

[Цитировать] 

СпасиБо!
[Профиль]  [ЛС] 

Максим И.

Стаж: 13 лет

Сообщений: 50

Russia

post 11-Фев-2012 00:39 (спустя 1 год 3 месяца)

[Цитировать] 

Спаси Бог автора!
[Профиль]  [ЛС] 

samylin

Стаж: 6 лет 11 месяцев

Сообщений: 7

Russia

post 10-Сен-2015 22:48 (спустя 3 года 6 месяцев)

[Цитировать] 

спасибо...
[Профиль]  [ЛС] 
Показать сообщения:    
Ответить на тему

Текущее время: 09-Авг 15:34

Часовой пояс: GMT + 4



Вы не можете начинать темы
Вы не можете отвечать на сообщения
Вы не можете редактировать свои сообщения
Вы не можете удалять свои сообщения
Вы не можете голосовать в опросах
Вы не можете прикреплять файлы к сообщениям
Вы не можете скачивать файлы