Loading...
Error

(Церковная музыка и церковные хоры (lossless).) «Двунадесятые праздники». "День Святой Троицы. Пятидесятница". Иеродиакон Герман (Рябцев). (2 CD).- 2003, APE (image + .cue), lossless

Ответить на тему
Статистика раздачи
Скачали: [ 3 ]
   
 
Автор Сообщение

СЕРГУЛЕТ

Стаж: 8 лет 3 месяца

Сообщений: 2639

Откуда: LA ROMANA

Dominicanrep

post 15-Фев-2010 15:59

[Цитировать] 

«Двунадесятые праздники». "День Святой Троицы. Пятидесятница". Иеродиакон Герман (Рябцев). (2 CD).

pic
Страна: Россия. Продюсерский центр Игоря Матвиенко.
Жанр: Церковная музыка и церковные хоры (lossless).
Год выпуска: 2003
Формат: APE (image + .cue)
Битрейт аудио: lossless
Продолжительность: 00:43:51+00:43:36
Трэклист:
ДИСК I
На вечерне:
1. Господи, воззвах… [с псалмами] (глас 1*)
Стихиры на Господи, воззвах…
2. Пятьдесятницу празднуем… (глас 1*)
3. Языками инородны… (глас 1*)
4. Видехом свет истинный… (глас 2*)
5. Слава, и ныне… Приидите, людие… (глас 8*)
6. Свете тихий… (глас 8
7. Паремии
На утрене:
8. Бог Господь… (глас 8****)
9. Тропарь праздника Благословен еси, Христе Боже наш… (глас 8*)
10. Полиелей***
11. Величание**
12. Седален По восстании Христе еже от гроба…
13. От юности моея… (глас 4***/**)
14. Чин Евангелия ****
15. Псалом 50
16. Царю Небесный…
Канон праздника (глас 7 * / глас 4 */**)
17. Песнь 1

ДИСК II
Канон праздника
1. Песнь 3
2. Седален Спасовы рачители радости исполнишася…
3. Песнь 4, 5, 6
4. Кондак Егда снизшед языки слия…*
Икос Скорое и известное утешение…
5. Песнь 7, 8
6. Песнь 9
7. Экзапостиларий*
8. Всякое дыхание… глас 4 ****
9. Стихира на хвалитех Дух Святый… (глас 4*)
10. Слава, и ныне… Царю Небесный… (глас 6*)

* знаменный распев
** знаменный распев с исоном
*** валаамский распев
**** валаамский распев с исоном
Дополнительная информация: Чтение Евангелия-иерей Ростислав Перебейнос.
Записано в домашней студии.
2003 год.
EAC log
Exact Audio Copy V0.99 prebeta 5 from 4. May 2009

Отчёт EAC об извлечении, выполненном 14. февраля 2010, 23:57

Unknown Artist / Троица-1

Дисковод: ASUS DRW-2014L1T Adapter: 0 ID: 1

Режим чтения : Скоростной

Коррекция смещения при чтении : 6
Способность читать области Lead-in и Lead-out : Нет
Заполнение пропущенных сэмплов тишиной : Да
Удаление блоков с тишиной в начале и конце : Нет
При вычислениях CRC использовались нулевые сэмплы : Да
Интерфейс : Встроенный Win32-интерфейс для Win NT/2000

Выходной формат : Внутренние WAV-операции
Формат сэмплов : 44.100 Гц; 16 бит; стерео

TOC извлечённого CD

Трек | Старт | Длительность | Начальный сектор | Конечный сектор
---------------------------------------------------------------------
1 | 0:00.00 | 3:43.12 | 0 | 16736
2 | 3:43.12 | 1:10.39 | 16737 | 22025
3 | 4:53.51 | 1:18.13 | 22026 | 27888
4 | 6:11.64 | 1:24.24 | 27889 | 34212
5 | 7:36.13 | 4:44.04 | 34213 | 55516
6 | 12:20.17 | 2:40.08 | 55517 | 67524
7 | 15:00.25 | 6:11.63 | 67525 | 95412
8 | 21:12.13 | 2:10.06 | 95413 | 105168
9 | 23:22.19 | 1:16.59 | 105169 | 110927
10 | 24:39.03 | 6:00.57 | 110928 | 137984
11 | 30:39.60 | 1:01.07 | 137985 | 142566
12 | 31:40.67 | 0:33.12 | 142567 | 145053
13 | 32:14.04 | 0:55.68 | 145054 | 149246
14 | 33:09.72 | 3:33.32 | 149247 | 165253
15 | 36:43.29 | 1:57.34 | 165254 | 174062
16 | 38:40.63 | 2:18.62 | 174063 | 184474
17 | 40:59.50 | 2:52.01 | 184475 | 197375

Характеристики диапазона извлечения и сообщения об ошибках

Выбранный диапазон

Имя файла C:\Unknown Artist - Троица-1.wav

Проблемы синхронизации 0:00:38

Пиковый уровень 97.7 %
CRC копии D04C8A5B
Копирование завершено

Ошибок не произошло

Конец отчёта

cd2.
Exact Audio Copy V0.99 prebeta 5 from 4. May 2009

Отчёт EAC об извлечении, выполненном 15. февраля 2010, 0:01

Unknown Artist / Троица-2

Дисковод: ASUS DRW-2014L1T Adapter: 0 ID: 1

Режим чтения : Скоростной

Коррекция смещения при чтении : 6
Способность читать области Lead-in и Lead-out : Нет
Заполнение пропущенных сэмплов тишиной : Да
Удаление блоков с тишиной в начале и конце : Нет
При вычислениях CRC использовались нулевые сэмплы : Да
Интерфейс : Встроенный Win32-интерфейс для Win NT/2000

Выходной формат : Внутренние WAV-операции
Формат сэмплов : 44.100 Гц; 16 бит; стерео

TOC извлечённого CD

Трек | Старт | Длительность | Начальный сектор | Конечный сектор
---------------------------------------------------------------------
1 | 0:00.00 | 4:16.24 | 0 | 19223
2 | 4:16.24 | 0:31.14 | 19224 | 21562
3 | 4:47.38 | 10:25.56 | 21563 | 68493
4 | 15:13.19 | 2:17.28 | 68494 | 78796
5 | 17:30.47 | 7:47.73 | 78797 | 113894
6 | 25:18.45 | 8:23.02 | 113895 | 151621
7 | 33:41.47 | 1:32.71 | 151622 | 158592
8 | 35:14.43 | 3:17.33 | 158593 | 173400
9 | 38:32.01 | 2:14.61 | 173401 | 183511
10 | 40:46.62 | 2:50.04 | 183512 | 196265

Характеристики диапазона извлечения и сообщения об ошибках

Выбранный диапазон

Имя файла C:\Unknown Artist - Троица-2.wav

Проблемы синхронизации 0:00:38

Пиковый уровень 97.7 %
CRC копии 2585EEFD
Копирование завершено

Ошибок не произошло

Конец отчёта
Download

Войдите для скачивания торрент-файла

Как скачивать  ·   Правила трекера

[Профиль]  [ЛС] 

leksus

Стаж: 8 лет 1 месяц

Сообщений: 113

Russia

post 15-Фев-2010 21:54 (спустя 5 часов)

[Цитировать] 

С Великим постом! у вас нет случайно практического руководства алтарника
[Профиль]  [ЛС] 

СЕРГУЛЕТ

Стаж: 8 лет 3 месяца

Сообщений: 2639

Откуда: LA ROMANA

Dominicanrep

post 15-Фев-2010 21:55 (спустя 1 минута)

[Цитировать] 

leksus
И вас с Постом!!! И не слыхивал...
[Профиль]  [ЛС] 

Idealist

Стаж: 6 лет 1 месяц

Сообщений: 58

Russia

post 15-Ноя-2011 14:12 (спустя 1 год 8 месяцев)

[Цитировать] 

Да благословит Вас Бог за труды, Сергулет! Спасибо!
[Профиль]  [ЛС] 

4x4Runner

Стаж: 4 года 2 месяца

Сообщений: 15

post 10-Мар-2014 09:59 (спустя 2 года 3 месяца)

[Цитировать] 

Премного благодарен!!!
[Профиль]  [ЛС] 

CEPBEP4

Стаж: 6 лет 2 месяца

Сообщений: 133

Откуда: ОРЕНБУРГ

Russia

post 30-Май-2015 14:28 (спустя 1 год 2 месяца)

[Цитировать] 

Помощи Божией Сергулету, и многая благая лета, действительно выкладывает редкие диски, которых в иконных лавках не найти!

_________________
pic
pic 100 Мбит/с pic 100 Мбит/с pic
[Профиль]  [ЛС] 

Leon_732011

Стаж: 5 лет 7 месяцев

Сообщений: 12

Russia

post 29-Авг-2015 20:39 (спустя 2 месяца 30 дней)

[Цитировать] 

Спаси Бог !
[Профиль]  [ЛС] 

Damian

Стаж: 7 лет 5 месяцев

Сообщений: 1839

Откуда: Донбасс

Russia

post 30-Авг-2015 04:43 (спустя 8 часов)

[Цитировать] 

Неужели нет сканов?
ашж зла не хватает Smile

_________________
Помолимся!
[Профиль]  [ЛС] 

Dubav

Стаж: 11 месяцев

Сообщений: 10

Mongolia

post 19-Июн-2016 10:09 (спустя 9 месяцев)

[Цитировать] 

Благодарствие Сергулету и Мира на многие лета. Храни Его Господи
[Профиль]  [ЛС] 
Показать сообщения:    
Ответить на тему

Текущее время: 24-Май 06:14

Часовой пояс: GMT + 4



Вы не можете начинать темы
Вы не можете отвечать на сообщения
Вы не можете редактировать свои сообщения
Вы не можете удалять свои сообщения
Вы не можете голосовать в опросах
Вы не можете прикреплять файлы к сообщениям
Вы не можете скачивать файлы