Loading...
Error

(Православные песнопения) Хор сестёр Свято-Успенского Николо-Васильевского Монастыря - Духовные канты. Русь называют Святою - FLAC (image + .cue), lossless

Ответить на тему
Статистика раздачи
Скачали: [ 12 ]
   
 
Автор Сообщение

Р.Б.А

Стаж: 7 лет

Сообщений: 2682

Russia

post 22-Авг-2015 15:23

[Цитировать] 

Хор сестёр Свято-Успенского Николо-Васильевского Монастыря / Духовные канты. Русь называют Святою

pic
Издатель: Свято-Успенский Николо-Васильевский Монастырь
Жанр: Православные песнопения
Год выпуска: не указан
Формат: FLAC (image + .cue)
Битрейт аудио: lossless
Продолжительность: 00:47:54
Трэклист:
[05:13] 01. Русь называют Святою. Духовные канты - Русь называют Святою [640 kbps]
[04:45] 02. Русь называют Святою. Духовные канты - Пюхтицы [640 kbps]
[04:28] 03. Русь называют Святою. Духовные канты - Преподобный Серафим [640 kbps]
[05:19] 04. Русь называют Святою. Духовные канты - Самарянка [640 kbps]
[05:04] 05. Русь называют Святою. Духовные канты - Слава Богу, за всё [640 kbps]
[05:16] 06. Русь называют Святою. Духовные канты - Песня о маме [640 kbps]
[04:23] 07. Русь называют Святою. Духовные канты - Песня о Святителе Николае [640 kbps]
[04:09] 08. Русь называют Святою. Духовные канты - Закатилося солнце красное [640 kbps]
[04:57] 09. Русь называют Святою. Духовные канты - Соловей [640 kbps]
[04:23] 10. Русь называют Святою. Духовные канты - Песня о батюшке Зосиме [640 kbps]

Об альбоме (сборнике): Духовные канты в исполнении сестёр Свято-Успенского Николо-Васильевского Монастыря
Наличие сканов в содержимом раздачи: да
Обложка+Диск+Содержание
pic
pic
pic
Дополнительная информация
Лог создания рипа
Exact Audio Copy V1.0 beta 3 from 29. August 2011

Отчёт EAC об извлечении, выполненном 22. августа 2015, 4:41

Свято-Успенский Николо-Васильевский Монастырь / Русь называют Святою. Духовные канты

Дисковод: PIONEER DVD-RW DVR-112D Adapter: 2 ID: 1

Режим чтения : Достоверность
Использование точного потока : Да
Отключение кэша аудио : Да
Использование указателей C2 : Нет

Коррекция смещения при чтении : 48
Способность читать области Lead-in и Lead-out : Нет
Заполнение пропущенных сэмплов тишиной : Да
Удаление блоков с тишиной в начале и конце : Нет
При вычислениях CRC использовались нулевые сэмплы : Да
Интерфейс : Встроенный Win32-интерфейс для Win NT/2000

Выходной формат : Пользовательский кодировщик
Выбранный битрейт : 1024 kBit/s
Качество : Высокий
Добавление ID3-тега : Нет
Утилита сжатия : C:\Program Files\Exact Audio Copy\Flac\flac.exe
Дополнительные параметры : -V -8 -T "Date=%year%" -T "Genre=%genre%" %source%

TOC извлечённого CD

Трек | Старт | Длительность | Начальный сектор | Конечный сектор
---------------------------------------------------------------------
1 | 0:00.00 | 5:12.21 | 0 | 23420
2 | 5:12.21 | 4:44.56 | 23421 | 44776
3 | 9:57.02 | 4:27.45 | 44777 | 64846
4 | 14:24.47 | 5:18.60 | 64847 | 88756
5 | 19:43.32 | 5:03.57 | 88757 | 111538
6 | 24:47.14 | 5:15.72 | 111539 | 135235
7 | 30:03.11 | 4:22.46 | 135236 | 154931
8 | 34:25.57 | 4:08.38 | 154932 | 173569
9 | 38:34.20 | 4:56.39 | 173570 | 195808
10 | 43:30.59 | 4:22.56 | 195809 | 215514

Характеристики диапазона извлечения и сообщения об ошибках

Выбранный диапазон

Имя файла J:\ДУХОВНЫЕ КАНТЫ\Свято-Успенский Николо-Васильевский Монастырь - Русь называют Святою. Духовные канты.wav

Пиковый уровень 90.7 %
Скорость извлечения 7.1 X
Качество диапазона 100.0 %
CRC теста D28A4289
CRC копии D28A4289
Копирование... OK

Ошибок не произошло

Конец отчёта

==== Контрольная сумма отчёта 51301D7AEC850ABBF1F9C422498F899A37224DB52F2B302E233E248804256045 ====
Содержание индексной карты (.CUE)
REM GENRE Chorus
REM DISCID 8E0B390A
REM COMMENT "ExactAudioCopy v1.0b3"
PERFORMER "Свято-Успенский Николо-Васильевский Монастырь"
TITLE "Русь называют Святою. Духовные канты"
FILE "Свято-Успенский Николо-Васильевский Монастырь - Русь называют Святою. Духовные канты.flac" WAVE
TRACK 01 AUDIO
TITLE "Русь называют Святою"
PERFORMER "Свято-Успенский Николо-Васильевский Монастырь"
INDEX 01 00:00:00
TRACK 02 AUDIO
TITLE "Пюхтицы"
PERFORMER "Свято-Успенский Николо-Васильевский Монастырь"
INDEX 01 05:12:21
TRACK 03 AUDIO
TITLE "Преподобный Серафим"
PERFORMER "Свято-Успенский Николо-Васильевский Монастырь"
INDEX 01 09:57:02
TRACK 04 AUDIO
TITLE "Самарянка"
PERFORMER "Свято-Успенский Николо-Васильевский Монастырь"
INDEX 01 14:24:47
TRACK 05 AUDIO
TITLE "Слава Богу, за всё"
PERFORMER "Свято-Успенский Николо-Васильевский Монастырь"
INDEX 01 19:43:32
TRACK 06 AUDIO
TITLE "Песня о маме"
PERFORMER "Свято-Успенский Николо-Васильевский Монастырь"
INDEX 01 24:47:14
TRACK 07 AUDIO
TITLE "Песня о Святителе Николае"
PERFORMER "Свято-Успенский Николо-Васильевский Монастырь"
INDEX 01 30:03:11
TRACK 08 AUDIO
TITLE "Закатилося солнце красное"
PERFORMER "Свято-Успенский Николо-Васильевский Монастырь"
INDEX 01 34:25:57
TRACK 09 AUDIO
TITLE "Соловей"
PERFORMER "Свято-Успенский Николо-Васильевский Монастырь"
INDEX 01 38:34:20
TRACK 10 AUDIO
TITLE "Песня о батюшке Зосиме"
PERFORMER "Свято-Успенский Николо-Васильевский Монастырь"
INDEX 01 43:30:59
Download

Войдите для скачивания торрент-файла

Как скачивать  ·   Правила трекера


_________________
picpic
[Профиль]  [ЛС] 

bratman

Стаж: 5 лет

Сообщений: 26

Russia

post 23-Авг-2015 01:31 (спустя 10 часов)

[Цитировать] 

2012 год.
Огромное спасибо!
[Профиль]  [ЛС] 

SOGSD86

Стаж: 3 года 10 месяцев

Сообщений: 181

Откуда: Ростов-на-Дону

Russia

post 24-Авг-2015 17:36 (спустя 1 день 16 часов)

[Цитировать] 

Благодарю!

_________________
pic
Съ нами Богъ!
[Профиль]  [ЛС] 
Показать сообщения:    
Ответить на тему

Текущее время: 29-Май 11:39

Часовой пояс: GMT + 4



Вы не можете начинать темы
Вы не можете отвечать на сообщения
Вы не можете редактировать свои сообщения
Вы не можете удалять свои сообщения
Вы не можете голосовать в опросах
Вы не можете прикреплять файлы к сообщениям
Вы не можете скачивать файлы