Loading...
Error

(Богослужебные, церковные пения) Тысячелетие Русского Богослужебного Пения. Мужской хор Санкт-Петербургского Подворья мон - 2002, FLAC (image + .cue), lossless

Ответить на тему
Статистика раздачи
Скачали: [ 9 ]
   
 
Автор Сообщение

NOY

Стаж: 8 лет 2 месяца

Сообщений: 92

Откуда: Екатеринбург

Russia

post 29-Сен-2011 21:18

[Цитировать] 

Тысячелетие Русского Богослужебного Пения.
Мужской хор Санкт-Петербургского Подворья монастыря Свято-Введенская Оптина Пустынь


pic
Страна: Россия
Жанр: Богослужебные, церковные пения
Год выпуска: 2002
Формат: FLAC (image + .cue)
Битрейт аудио: lossless
Продолжительность: 55 мин. 59 с
Трэклист:
CD: Мужской хор Санкт-Петербургского Подворья монастыря Свято-Введенская Оптина Пустынь - Тысячелетие Русского Богослужебного Пения

01. Херувимская песнь [0:08:08.61]
02. Свете тихий [0:03:08.16]
03. Отче наш [0:03:55.36]
04. Херувимская песнь [0:06:03.11]
05. Тебе одеющагося [0:04:58.59]
06. Воскресение Твое, Христе Спасе [0:00:56.29]
07. Совет превечный [0:06:26.44]
08. Апостоли от конец [0:03:01.47]
09. Егда от древа [0:01:55.20]
10. Да возрадуется душа твоя о Господе [0:02:25.40]
11. Господи сил, с нами буди [0:09:03.33]
12. Дева днесь Пресущественнаго раждает [0:02:54.07]
13. Архангельский глас [0:01:22.20]
14. Богородице Дево, радуйся [0:01:37.28]

В раздаче - скан обложки, диска, отчет.

Exact Audio Copy V1.0 beta 3 from 29. August 2011
EAC log
Отчёт EAC об извлечении, выполненном 29. сентября 2011, 23:00

Мужской хор Санкт-Петербургского Подворья монастыря Свято-Введенская Оптина Пустынь / Тысячелетие Русского Богослужебного Пения

Дисковод: ASUS DRW-1608P2S Adapter: 1 ID: 0

Режим чтения : Достоверность
Использование точного потока : Да
Отключение кэша аудио : Да
Использование указателей C2 : Нет

Коррекция смещения при чтении : 48
Способность читать области Lead-in и Lead-out : Нет
Заполнение пропущенных сэмплов тишиной : Да
Удаление блоков с тишиной в начале и конце : Нет
При вычислениях CRC использовались нулевые сэмплы : Да
Интерфейс : Установленный внешний ASPI-интерфейс

Выходной формат : Пользовательский кодировщик
Выбранный битрейт : 896 kBit/s
Качество : Высокий
Добавление ID3-тега : Нет
Утилита сжатия : C:\Program Files\Exact Audio Copy\FLAC\FLAC.EXE
Дополнительные параметры : -6 -V -T "ARTIST=%artist%" -T "TITLE=%title%" -T "ALBUM=%albumtitle%" -T "DATE=%year%" -T "TRACKNUMBER=%tracknr%" -T "GENRE=%genre%" -T "COMMENT=%comment%" -T "BAND=%albuminterpret%" -T "ALBUMARTIST=%albuminterpret%" -T "COMPOSER=%composer%" %haslyrics%--tag-from-file=LYRICS="%lyricsfile%"%haslyrics% -T "DISCNUMBER=%cdnumber%" -T "TOTALDISCS=%totalcds%" -T "TOTALTRACKS=%numtracks%" %hascover%--picture="%coverfile%"%hascover% %source% -o %dest%

TOC извлечённого CD

Трек | Старт | Длительность | Начальный сектор | Конечный сектор
---------------------------------------------------------------------
1 | 0:00.00 | 8:08.61 | 0 | 36660
2 | 8:08.61 | 3:08.16 | 36661 | 50776
3 | 11:17.02 | 3:55.36 | 50777 | 68437
4 | 15:12.38 | 6:03.11 | 68438 | 95673
5 | 21:15.49 | 4:58.59 | 95674 | 118082
6 | 26:14.33 | 0:56.29 | 118083 | 122311
7 | 27:10.62 | 6:26.44 | 122312 | 151305
8 | 33:37.31 | 3:01.47 | 151306 | 164927
9 | 36:39.03 | 1:55.20 | 164928 | 173572
10 | 38:34.23 | 2:25.40 | 173573 | 184487
11 | 40:59.63 | 9:03.33 | 184488 | 225245
12 | 50:03.21 | 2:54.07 | 225246 | 238302
13 | 52:57.28 | 1:22.20 | 238303 | 244472
14 | 54:19.48 | 1:37.28 | 244473 | 251775

Характеристики диапазона извлечения и сообщения об ошибках

Выбранный диапазон

Имя файла E:\Music\Песнопения\Тысячелетие Русского Богослужебного Пения.flac\Мужской хор Санкт-Петербургского Подворья монастыря Свято-Введенская Оптина Пустынь - Тысячелетие Русского Богослужебного Пения.wav

Пиковый уровень 85.8 %
Скорость извлечения 7.0 X
Качество диапазона 100.0 %
CRC копии 83F81C95
Копирование... OK

Ошибок не произошло

AccurateRip: сводка
Трек 1 : извлечено точно (доверие 1) [86E62305] (AR v2)
Трек 2 : извлечено точно (доверие 1) [68BFC7D5] (AR v2)
Трек 3 : извлечено точно (доверие 1) [B214314A] (AR v2)
Трек 4 : извлечено точно (доверие 1) [B9C1F146] (AR v2)
Трек 5 : извлечено точно (доверие 1) [4A278BD8] (AR v2)
Трек 6 : извлечено точно (доверие 1) [38B33521] (AR v2)
Трек 7 : извлечено точно (доверие 1) [C8777A25] (AR v2)
Трек 8 : извлечено точно (доверие 1) [AF422A63] (AR v2)
Трек 9 : извлечено точно (доверие 1) [8EAF6FAC] (AR v2)
Трек 10 : извлечено точно (доверие 1) [F02A13A4] (AR v2)
Трек 11 : извлечено точно (доверие 1) [A33F4792] (AR v2)
Трек 12 : извлечено точно (доверие 1) [57666D29] (AR v2)
Трек 13 : извлечено точно (доверие 1) [EBA3AFC5] (AR v2)
Трек 14 : извлечено точно (доверие 1) [1D744A88] (AR v2)
Все треки извлечены точно

Конец отчёта

---- CUETools DB Plugin V2.1.3

[CTDB TOCID: VRVhYod1_3NOgMAUdGa2JeR63qY-] found, Submit result: VRVhYod1_3NOgMAUdGa2JeR63qY- has been confirmed
[75752d63] (4/4) Accurately ripped

==== Контрольная сумма отчёта 771EC03AE1EAEA28DE2BAB825C50CE47F4A7FBACE63A5DCDE2F9E8D778469FCB ====

------------------------------------------------------------

Exact Audio Copy V1.0 beta 3 from 29. August 2011

Отчёт EAC об извлечении, выполненном 29. сентября 2011, 23:00

Мужской хор Санкт-Петербургского Подворья монастыря Свято-Введенская Оптина Пустынь / Тысячелетие Русского Богослужебного Пения

Дисковод: ASUS DRW-1608P2S Adapter: 1 ID: 0

Режим чтения : Достоверность
Использование точного потока : Да
Отключение кэша аудио : Да
Использование указателей C2 : Нет

Коррекция смещения при чтении : 48
Способность читать области Lead-in и Lead-out : Нет
Заполнение пропущенных сэмплов тишиной : Да
Удаление блоков с тишиной в начале и конце : Нет
При вычислениях CRC использовались нулевые сэмплы : Да
Интерфейс : Установленный внешний ASPI-интерфейс

Выходной формат : Пользовательский кодировщик
Выбранный битрейт : 896 kBit/s
Качество : Высокий
Добавление ID3-тега : Нет
Утилита сжатия : C:\Program Files\Exact Audio Copy\FLAC\FLAC.EXE
Дополнительные параметры : -6 -V -T "ARTIST=%artist%" -T "TITLE=%title%" -T "ALBUM=%albumtitle%" -T "DATE=%year%" -T "TRACKNUMBER=%tracknr%" -T "GENRE=%genre%" -T "COMMENT=%comment%" -T "BAND=%albuminterpret%" -T "ALBUMARTIST=%albuminterpret%" -T "COMPOSER=%composer%" %haslyrics%--tag-from-file=LYRICS="%lyricsfile%"%haslyrics% -T "DISCNUMBER=%cdnumber%" -T "TOTALDISCS=%totalcds%" -T "TOTALTRACKS=%numtracks%" %hascover%--picture="%coverfile%"%hascover% %source% -o %dest%

TOC извлечённого CD

Трек | Старт | Длительность | Начальный сектор | Конечный сектор
---------------------------------------------------------------------
1 | 0:00.00 | 8:08.61 | 0 | 36660
2 | 8:08.61 | 3:08.16 | 36661 | 50776
3 | 11:17.02 | 3:55.36 | 50777 | 68437
4 | 15:12.38 | 6:03.11 | 68438 | 95673
5 | 21:15.49 | 4:58.59 | 95674 | 118082
6 | 26:14.33 | 0:56.29 | 118083 | 122311
7 | 27:10.62 | 6:26.44 | 122312 | 151305
8 | 33:37.31 | 3:01.47 | 151306 | 164927
9 | 36:39.03 | 1:55.20 | 164928 | 173572
10 | 38:34.23 | 2:25.40 | 173573 | 184487
11 | 40:59.63 | 9:03.33 | 184488 | 225245
12 | 50:03.21 | 2:54.07 | 225246 | 238302
13 | 52:57.28 | 1:22.20 | 238303 | 244472
14 | 54:19.48 | 1:37.28 | 244473 | 251775

Характеристики диапазона извлечения и сообщения об ошибках

Выбранный диапазон

Имя файла E:\Music\Песнопения\Тысячелетие Русского Богослужебного Пения.flac\Мужской хор Санкт-Петербургского Подворья монастыря Свято-Введенская Оптина Пустынь - Тысячелетие Русского Богослужебного Пения.wav

Пиковый уровень 85.8 %
Скорость извлечения 7.0 X
Качество диапазона 100.0 %
CRC копии 83F81C95
Копирование... OK

Ошибок не произошло

AccurateRip: сводка
Трек 1 : извлечено точно (доверие 1) [86E62305] (AR v2)
Трек 2 : извлечено точно (доверие 1) [68BFC7D5] (AR v2)
Трек 3 : извлечено точно (доверие 1) [B214314A] (AR v2)
Трек 4 : извлечено точно (доверие 1) [B9C1F146] (AR v2)
Трек 5 : извлечено точно (доверие 1) [4A278BD8] (AR v2)
Трек 6 : извлечено точно (доверие 1) [38B33521] (AR v2)
Трек 7 : извлечено точно (доверие 1) [C8777A25] (AR v2)
Трек 8 : извлечено точно (доверие 1) [AF422A63] (AR v2)
Трек 9 : извлечено точно (доверие 1) [8EAF6FAC] (AR v2)
Трек 10 : извлечено точно (доверие 1) [F02A13A4] (AR v2)
Трек 11 : извлечено точно (доверие 1) [A33F4792] (AR v2)
Трек 12 : извлечено точно (доверие 1) [57666D29] (AR v2)
Трек 13 : извлечено точно (доверие 1) [EBA3AFC5] (AR v2)
Трек 14 : извлечено точно (доверие 1) [1D744A88] (AR v2)
Все треки извлечены точно

Конец отчёта

---- CUETools DB Plugin V2.1.3

[CTDB TOCID: VRVhYod1_3NOgMAUdGa2JeR63qY-] found, Submit result: VRVhYod1_3NOgMAUdGa2JeR63qY- has been confirmed
[75752d63] (4/4) Accurately ripped

==== Контрольная сумма отчёта 771EC03AE1EAEA28DE2BAB825C50CE47F4A7FBACE63A5DCDE2F9E8D778469FCB ====
Download

Войдите для скачивания торрент-файла

Как скачивать  ·   Правила трекера



Последний раз редактировалось: NOY (2013-04-17 12:05), всего редактировалось 2 раз(а)
[Профиль]  [ЛС] 

NOY

Стаж: 8 лет 2 месяца

Сообщений: 92

Откуда: Екатеринбург

Russia

post 29-Сен-2011 21:24 (спустя 5 минут)

[Цитировать] 

Моя первая работа в Lossless, поправьте если, что не так.
[Профиль]  [ЛС] 

Странник1

Стаж: 7 лет 5 месяцев

Сообщений: 2308

Russia

post 29-Сен-2011 22:45 (спустя 1 час 20 минут)

[Цитировать] 

Благодарю
[Профиль]  [ЛС] 

rublev

Стаж: 8 лет 3 месяца

Сообщений: 60

Ukraine

post 29-Сен-2011 23:23 (спустя 37 минут)

[Цитировать] 

Благодарствую!!!
[Профиль]  [ЛС] 

Nikolay Maximushkin

Стаж: 4 года 1 месяц

Сообщений: 1

Russia

post 02-Апр-2013 17:04 (спустя 1 год 6 месяцев)

[Цитировать] 

Спаси Господи!
[Профиль]  [ЛС] 

stepan-frunze

Стаж: 8 лет 2 месяца

Сообщений: 2565

Russia

post 15-Апр-2013 23:06 (спустя 13 дней)

[Цитировать] 

Благодарствую!!!
[Профиль]  [ЛС] 

alchik

Стаж: 1 год 10 месяцев

Сообщений: 1

Russia

post 23-Июл-2015 20:28 (спустя 2 года 3 месяца)

[Цитировать] 

Спаси Господи!
[Профиль]  [ЛС] 
Показать сообщения:    
Ответить на тему

Текущее время: 30-Май 09:26

Часовой пояс: GMT + 4



Вы не можете начинать темы
Вы не можете отвечать на сообщения
Вы не можете редактировать свои сообщения
Вы не можете удалять свои сообщения
Вы не можете голосовать в опросах
Вы не можете прикреплять файлы к сообщениям
Вы не можете скачивать файлы