Loading...
Error

(Церковная музыка и церковные хоры (lossless).) "Глас Печерский". С любовью: Румыния, Грузия, Сербия, Латвия. (2CD). - 2007, APE (image + .cue), lossless

Ответить на тему
Статистика раздачи
Скачали: [ 6 ]
   
 
Автор Сообщение

СЕРГУЛЕТ

Стаж: 8 лет

Сообщений: 2639

Откуда: LA ROMANA

Dominicanrep

post 27-Дек-2009 14:18

[Цитировать] 

"Глас Печерский". С любовью: Румыния, Грузия, Сербия, Латвия. (2CD).

pic
Страна: Украина. Свято Успенская Киево-Печерская Лавра.
Жанр: Церковная музыка и церковные хоры (lossless).
Год выпуска: 2007
Формат: APE (image + .cue)
Битрейт аудио: lossless
Продолжительность: 01:55:10.
Трэклист:
CD1.
1. Заставка.
2. Высшую небес, Достойно есть.
3. Тропарь прп. Феодосию Печерскому.
4. Блаженны с тропарями.
5. Тропарь преподобным Печерским.
6. Срадуйтеся нам.
7. Царю небесный.
8. Трисвятое.
9. Благослови, душе моя, Господа.
10. Господи воззвах.
11. Слава в вышних Богу.
12. Прийдите, пиво пием новое.
13. Со духи праведных скончавшихся.
14. Многая лета. Народное.
15. Многая лета. Обработка Давида Кахидзе.
16. Трисвятое. Сванский напев.
17. Тропарь святой равноапостольной Нине.
18. Богородице, Ты еси Лоза истинная.

CD2.
1. Заставка.
2. Кондак акафиста Божией Матери.
3. Царю Небесный.
4. Достойно есть.
5. Молитва святому Савве.
6. Тебе Бога хвалим.
7. Воскресение Христово видевше.
8. Херувимская песнь.
9. Воскликните Господеви.
10. Не имамы иныя помощи.
11. Разбойника благоразумного.
12. Внуши, Боже , молитву мою.
13. Три духовных хора.
14. Слава... Единородный Сыне.
15. Благослови, душе моя, Господа.
16. Господи, спаси благочестивыя.
17. Хвалите Господа с небес.
18. Скажи ми, Господи, кончину мою.
Дополнительная информация: CD1.
2-6. Румынская Православная Церковь. Хор "Ставрополеос" г. Бухарест.
7-15. Грузинская Православная Церковь. Хор Шавнабадского Свято-Георгиевского мужского монастыря.
16-18. Мужской хор Свято-Троицкого храма г. Тбилиси.
CD2.
2-11. Сербская Православная Церковь. Мужской хор храма Святой Троицы "Серафим". г. Белград.
12-18. Латвийская Православная Церковь. Хор Рижского кафедрального собора "Благовест".
Запись произведена 23-25 октября 2007 года в Свято Успенской Киево-Печерской Лавре, на II Международном фестивале "Глас Печерский".
Дополнительная информация:
Обложки+Содержание
picpicpic
EAC log
Exact Audio Copy V0.99 prebeta 5 from 4. May 2009

Отчёт EAC об извлечении, выполненном 25. декабря 2009, 12:46

Unknown Artist / Глас Печерский-1

Дисковод: ASUS DRW-2014L1T Adapter: 0 ID: 1

Режим чтения : Скоростной

Коррекция смещения при чтении : 6
Способность читать области Lead-in и Lead-out : Нет
Заполнение пропущенных сэмплов тишиной : Да
Удаление блоков с тишиной в начале и конце : Нет
При вычислениях CRC использовались нулевые сэмплы : Да
Интерфейс : Встроенный Win32-интерфейс для Win NT/2000

Выходной формат : Внутренние WAV-операции
Формат сэмплов : 44.100 Гц; 16 бит; стерео

TOC извлечённого CD

Трек | Старт | Длительность | Начальный сектор | Конечный сектор
---------------------------------------------------------------------
1 | 0:00.00 | 0:52.62 | 0 | 3961
2 | 0:52.62 | 3:28.02 | 3962 | 19563
3 | 4:20.64 | 1:40.34 | 19564 | 27097
4 | 6:01.23 | 5:52.08 | 27098 | 53505
5 | 11:53.31 | 0:58.34 | 53506 | 57889
6 | 12:51.65 | 5:03.37 | 57890 | 80651
7 | 17:55.27 | 2:06.18 | 80652 | 90119
8 | 20:01.45 | 1:07.22 | 90120 | 95166
9 | 21:08.67 | 3:39.11 | 95167 | 111602
10 | 24:48.03 | 2:11.09 | 111603 | 121436
11 | 26:59.12 | 2:56.74 | 121437 | 134710
12 | 29:56.11 | 1:30.00 | 134711 | 141460
13 | 31:26.11 | 3:29.40 | 141461 | 157175
14 | 34:55.51 | 2:40.50 | 157176 | 169225
15 | 37:36.26 | 3:07.55 | 169226 | 183305
16 | 40:44.06 | 1:40.10 | 183306 | 190815
17 | 42:24.16 | 2:44.24 | 190816 | 203139
18 | 45:08.40 | 3:56.01 | 203140 | 220840

Характеристики диапазона извлечения и сообщения об ошибках

Выбранный диапазон

Имя файла C:\Unknown Artist - Глас Печерский-1.wav

Проблемы синхронизации 0:00:37

Пиковый уровень 97.2 %
CRC копии 05E6A1C6
Копирование завершено

Ошибок не произошло

Конец отчёта

CD2.
Exact Audio Copy V0.99 prebeta 5 from 4. May 2009

Отчёт EAC об извлечении, выполненном 25. декабря 2009, 12:51

Unknown Artist / Глас Печерский-2

Дисковод: ASUS DRW-2014L1T Adapter: 0 ID: 1

Режим чтения : Скоростной

Коррекция смещения при чтении : 6
Способность читать области Lead-in и Lead-out : Нет
Заполнение пропущенных сэмплов тишиной : Да
Удаление блоков с тишиной в начале и конце : Нет
При вычислениях CRC использовались нулевые сэмплы : Да
Интерфейс : Встроенный Win32-интерфейс для Win NT/2000

Выходной формат : Внутренние WAV-операции
Формат сэмплов : 44.100 Гц; 16 бит; стерео

TOC извлечённого CD

Трек | Старт | Длительность | Начальный сектор | Конечный сектор
---------------------------------------------------------------------
1 | 0:00.00 | 0:54.52 | 0 | 4101
2 | 0:54.52 | 2:36.52 | 4102 | 15853
3 | 3:31.29 | 3:08.37 | 15854 | 29990
4 | 6:39.66 | 2:09.69 | 29991 | 39734
5 | 8:49.60 | 3:36.12 | 39735 | 55946
6 | 12:25.72 | 3:34.62 | 55947 | 72058
7 | 16:00.59 | 3:30.16 | 72059 | 87824
8 | 19:31.00 | 4:49.34 | 87825 | 109533
9 | 24:20.34 | 3:14.45 | 109534 | 124128
10 | 27:35.04 | 3:05.28 | 124129 | 138031
11 | 30:40.32 | 2:06.70 | 138032 | 147551
12 | 32:47.27 | 8:04.25 | 147552 | 183876
13 | 40:51.52 | 5:00.50 | 183877 | 206426
14 | 45:52.27 | 3:30.52 | 206427 | 222228
15 | 49:23.04 | 1:46.19 | 222229 | 230197
16 | 51:09.23 | 3:56.34 | 230198 | 247931
17 | 55:05.57 | 2:38.02 | 247932 | 259783
18 | 57:43.59 | 8:18.27 | 259784 | 297160

Характеристики диапазона извлечения и сообщения об ошибках

Выбранный диапазон

Имя файла C:\Unknown Artist - Глас Печерский-2.wav

Проблемы синхронизации 0:00:37

Пиковый уровень 95.7 %
CRC копии D66065B3
Копирование завершено

Ошибок не произошло

Конец отчёта
Download

Войдите для скачивания торрент-файла

Как скачивать  ·   Правила трекера

[Профиль]  [ЛС] 

карагандинец

Стаж: 5 лет 5 месяцев

Сообщений: 5

Kazakhstan

post 25-Июн-2013 14:16 (спустя 3 года 5 месяцев)

[Цитировать] 

Спаси Господи.
[Профиль]  [ЛС] 

stepan-frunze

Стаж: 7 лет 11 месяцев

Сообщений: 2565

Russia

post 25-Июн-2013 15:44 (спустя 1 час 28 минут)

[Цитировать] 

Спаси Господи.
[Профиль]  [ЛС] 

Князь мира

Стаж: 3 года 1 месяц

Сообщений: 4

post 15-Июл-2015 21:28 (спустя 2 года)

[Цитировать] 

Извините, как мне разбить и конвертировать ape + cue в несколько mp3 аудио? У меня показывает ошибку в MedievalCUE Splitter и Foobar2000.
[Профиль]  [ЛС] 

Князь мира

Стаж: 3 года 1 месяц

Сообщений: 4

post 15-Июл-2015 21:48 (спустя 19 минут)

[Цитировать] 

Князь мира писал(а):

Извините, как мне разбить и конвертировать ape + cue в несколько mp3 аудио? У меня показывает ошибку в MedievalCUE Splitter и Foobar2000.
Пошло на foobar. Открил cue в редакторе и изменил wav на ape.
[Профиль]  [ЛС] 
Показать сообщения:    
Ответить на тему

Текущее время: 25-Фев 20:30

Часовой пояс: GMT + 4



Вы не можете начинать темы
Вы не можете отвечать на сообщения
Вы не можете редактировать свои сообщения
Вы не можете удалять свои сообщения
Вы не можете голосовать в опросах
Вы не можете прикреплять файлы к сообщениям
Вы не можете скачивать файлы