Loading...
Error

(Церковная музыка Греции, Афона и Сербии (lossless)) "Святогорские псалты". Историческая запись. Монастырь Ватопед. Святая Гора Афон. (10CD) - 2010, APE (image + .cue), lossless

Ответить на тему
Статистика раздачи
Скачали: [ 3 ]
   
 
Автор Сообщение

СЕРГУЛЕТ

Стаж: 8 лет 3 месяца

Сообщений: 2639

Откуда: LA ROMANA

Dominicanrep

post 01-Фев-2011 23:52

[Цитировать] 

"Святогорские псалты". Историческая запись. Монастырь Ватопед. Святая Гора Афон. (10CD)

pic
Страна: Греция.
Жанр: Церковная музыка Греции, Афона и Сербии (lossless)
Год выпуска: 2010
Формат: APE (image + .cue)
Битрейт аудио: lossless
Продолжительность: ~10:00:00
Трэклист:
CD1.
Старец Роман Ватопедский. Старец Дорофей Ватопедский. 63:41.
CD2.
Монах Игнатий Ватопедский. 43:30.
CD3.
Монах Игнатий Ватопедский. 54:39.
CD4.
Старец Андрей Ватопедский. 53:50.
CD5.
Иеромонах Иоанн Ватопедский. Иеромонах Василий Ватопедский. 55:17.
CD6.
Иеромонах Василий Ватопедский. 63:53.
CD7.
Иеромонах Василий Ватопедский. 55:33.
CD8.
Иеромонах Гавриил Макавос. 61:40.
CD9.
Иеромонах Гавриил Макавос. 63:32.
CD10.
Иеромонах Гавриил Макавос. 61:35.
Обложки+Содержание 1-5
picpicpicpicpicpicpicpicpicpicpicpicpicpicpic
Обложки+Содержание 6-10
picpicpicpicpicpicpic
picpicpicpicpicpicpicpic
EAC log
CD1.
Exact Audio Copy V0.99 prebeta 5 from 4. May 2009

Отчёт EAC об извлечении, выполненном 1. февраля 2011, 20:34

Unknown Artist / Святогорские псалты 1

Дисковод: ASUS DRW-2014L1T Adapter: 2 ID: 1

Режим чтения : Достоверность
Использование точного потока : Да
Отключение кэша аудио : Да
Использование указателей C2 : Нет

Коррекция смещения при чтении : 6
Способность читать области Lead-in и Lead-out : Нет
Заполнение пропущенных сэмплов тишиной : Да
Удаление блоков с тишиной в начале и конце : Нет
При вычислениях CRC использовались нулевые сэмплы : Нет
Интерфейс : Встроенный Win32-интерфейс для Win NT/2000

Выходной формат : Внутренние WAV-операции
Формат сэмплов : 44.100 Гц; 16 бит; стерео

TOC извлечённого CD

Трек | Старт | Длительность | Начальный сектор | Конечный сектор
---------------------------------------------------------------------
1 | 0:00.00 | 6:17.74 | 0 | 28348
2 | 6:17.74 | 4:15.18 | 28349 | 47491
3 | 10:33.17 | 10:11.66 | 47492 | 93382
4 | 20:45.08 | 14:30.59 | 93383 | 158691
5 | 35:15.67 | 8:25.46 | 158692 | 196612
6 | 43:41.38 | 1:22.62 | 196613 | 202824
7 | 45:04.25 | 10:35.40 | 202825 | 250489
8 | 55:39.65 | 8:01.47 | 250490 | 286611

Характеристики диапазона извлечения и сообщения об ошибках

Выбранный диапазон

Имя файла C:\Unknown Artist - Святогорские псалты 1.wav

Пиковый уровень 97.5 %
Качество диапазона 100.0 %
CRC копии 7205D5FD
Копирование... OK

Ошибок не произошло

Конец отчёта
CD2.
Exact Audio Copy V0.99 prebeta 5 from 4. May 2009

Отчёт EAC об извлечении, выполненном 1. февраля 2011, 20:46

Unknown Artist / Святогорские псалты-2

Дисковод: ASUS DRW-2014L1T Adapter: 2 ID: 1

Режим чтения : Достоверность
Использование точного потока : Да
Отключение кэша аудио : Да
Использование указателей C2 : Нет

Коррекция смещения при чтении : 6
Способность читать области Lead-in и Lead-out : Нет
Заполнение пропущенных сэмплов тишиной : Да
Удаление блоков с тишиной в начале и конце : Нет
При вычислениях CRC использовались нулевые сэмплы : Нет
Интерфейс : Встроенный Win32-интерфейс для Win NT/2000

Выходной формат : Внутренние WAV-операции
Формат сэмплов : 44.100 Гц; 16 бит; стерео

TOC извлечённого CD

Трек | Старт | Длительность | Начальный сектор | Конечный сектор
---------------------------------------------------------------------
1 | 0:00.00 | 4:21.46 | 0 | 19620
2 | 4:21.46 | 1:12.66 | 19621 | 25086
3 | 5:34.37 | 1:51.49 | 25087 | 33460
4 | 7:26.11 | 7:30.67 | 33461 | 67277
5 | 14:57.03 | 2:11.08 | 67278 | 77110
6 | 17:08.11 | 1:25.20 | 77111 | 83505
7 | 18:33.31 | 3:52.18 | 83506 | 100923
8 | 22:25.49 | 5:00.11 | 100924 | 123434
9 | 27:25.60 | 1:05.74 | 123435 | 128383
10 | 28:31.59 | 1:35.46 | 128384 | 135554
11 | 30:07.30 | 5:30.16 | 135555 | 160320
12 | 35:37.46 | 4:30.27 | 160321 | 180597
13 | 40:07.73 | 3:23.00 | 180598 | 195822

Характеристики диапазона извлечения и сообщения об ошибках

Выбранный диапазон

Имя файла C:\Unknown Artist - Святогорские псалты-2.wav

Пиковый уровень 82.7 %
Качество диапазона 100.0 %
CRC копии 0DC52F28
Копирование... OK

Ошибок не произошло

Конец отчёта

CD3.
Exact Audio Copy V0.99 prebeta 5 from 4. May 2009

Отчёт EAC об извлечении, выполненном 1. февраля 2011, 20:57

Unknown Artist / Святогорские псалты-3

Дисковод: ASUS DRW-2014L1T Adapter: 2 ID: 1

Режим чтения : Достоверность
Использование точного потока : Да
Отключение кэша аудио : Да
Использование указателей C2 : Нет

Коррекция смещения при чтении : 6
Способность читать области Lead-in и Lead-out : Нет
Заполнение пропущенных сэмплов тишиной : Да
Удаление блоков с тишиной в начале и конце : Нет
При вычислениях CRC использовались нулевые сэмплы : Нет
Интерфейс : Встроенный Win32-интерфейс для Win NT/2000

Выходной формат : Внутренние WAV-операции
Формат сэмплов : 44.100 Гц; 16 бит; стерео

TOC извлечённого CD

Трек | Старт | Длительность | Начальный сектор | Конечный сектор
---------------------------------------------------------------------
1 | 0:00.00 | 2:46.00 | 0 | 12449
2 | 2:46.00 | 3:22.58 | 12450 | 27657
3 | 6:08.58 | 2:53.44 | 27658 | 40676
4 | 9:02.27 | 3:46.49 | 40677 | 57675
5 | 12:49.01 | 2:43.70 | 57676 | 69970
6 | 15:32.71 | 5:07.09 | 69971 | 93004
7 | 20:40.05 | 12:09.12 | 93005 | 147691
8 | 32:49.17 | 1:38.39 | 147692 | 155080
9 | 34:27.56 | 2:20.03 | 155081 | 165583
10 | 36:47.59 | 7:47.70 | 165584 | 200678
11 | 44:35.54 | 3:12.55 | 200679 | 215133
12 | 47:48.34 | 6:51.28 | 215134 | 245986

Характеристики диапазона извлечения и сообщения об ошибках

Выбранный диапазон

Имя файла C:\Unknown Artist - Святогорские псалты-3.wav

Пиковый уровень 94.5 %
Качество диапазона 100.0 %
CRC копии 9477392F
Копирование... OK

Ошибок не произошло

Конец отчёта

CD4.
Exact Audio Copy V0.99 prebeta 5 from 4. May 2009

Отчёт EAC об извлечении, выполненном 1. февраля 2011, 21:08

Unknown Artist / Святогорские псалты-4

Дисковод: ASUS DRW-2014L1T Adapter: 2 ID: 1

Режим чтения : Достоверность
Использование точного потока : Да
Отключение кэша аудио : Да
Использование указателей C2 : Нет

Коррекция смещения при чтении : 6
Способность читать области Lead-in и Lead-out : Нет
Заполнение пропущенных сэмплов тишиной : Да
Удаление блоков с тишиной в начале и конце : Нет
При вычислениях CRC использовались нулевые сэмплы : Нет
Интерфейс : Встроенный Win32-интерфейс для Win NT/2000

Выходной формат : Внутренние WAV-операции
Формат сэмплов : 44.100 Гц; 16 бит; стерео

TOC извлечённого CD

Трек | Старт | Длительность | Начальный сектор | Конечный сектор
---------------------------------------------------------------------
1 | 0:00.00 | 6:31.37 | 0 | 29361
2 | 6:31.37 | 2:01.26 | 29362 | 38462
3 | 8:32.63 | 1:08.45 | 38463 | 43607
4 | 9:41.33 | 1:15.22 | 43608 | 49254
5 | 10:56.55 | 0:50.63 | 49255 | 53067
6 | 11:47.43 | 1:21.56 | 53068 | 59198
7 | 13:09.24 | 0:53.53 | 59199 | 63226
8 | 14:03.02 | 0:56.68 | 63227 | 67494
9 | 14:59.70 | 1:13.47 | 67495 | 73016
10 | 16:13.42 | 7:50.13 | 73017 | 108279
11 | 24:03.55 | 3:39.62 | 108280 | 124766
12 | 27:43.42 | 11:00.16 | 124767 | 174282
13 | 38:43.58 | 4:17.48 | 174283 | 193605
14 | 43:01.31 | 2:54.65 | 193606 | 206720
15 | 45:56.21 | 0:40.38 | 206721 | 209758
16 | 46:36.59 | 0:49.73 | 209759 | 213506
17 | 47:26.57 | 3:05.11 | 213507 | 227392
18 | 50:31.68 | 2:11.69 | 227393 | 237286
19 | 52:43.62 | 1:06.50 | 237287 | 242286

Характеристики диапазона извлечения и сообщения об ошибках

Выбранный диапазон

Имя файла C:\Unknown Artist - Святогорские псалты-4.wav

Пиковый уровень 91.1 %
Качество диапазона 100.0 %
CRC копии 85F6A439
Копирование... OK

Ошибок не произошло

Конец отчёта

CD5.
Exact Audio Copy V0.99 prebeta 5 from 4. May 2009

Отчёт EAC об извлечении, выполненном 1. февраля 2011, 21:45

Unknown Artist / Святогорские псалты-5

Дисковод: ASUS DRW-2014L1T Adapter: 2 ID: 1

Режим чтения : Скоростной

Коррекция смещения при чтении : 0
Способность читать области Lead-in и Lead-out : Нет
Заполнение пропущенных сэмплов тишиной : Да
Удаление блоков с тишиной в начале и конце : Нет
При вычислениях CRC использовались нулевые сэмплы : Нет
Интерфейс : Встроенный Win32-интерфейс для Win NT/2000

Выходной формат : Внутренние WAV-операции
Формат сэмплов : 44.100 Гц; 16 бит; стерео

TOC извлечённого CD

Трек | Старт | Длительность | Начальный сектор | Конечный сектор
---------------------------------------------------------------------
1 | 0:00.00 | 2:35.71 | 0 | 11695
2 | 2:35.71 | 4:27.63 | 11696 | 31783
3 | 7:03.59 | 3:50.51 | 31784 | 49084
4 | 10:54.35 | 2:24.13 | 49085 | 59897
5 | 13:18.48 | 1:14.54 | 59898 | 65501
6 | 14:33.27 | 2:33.62 | 65502 | 77038
7 | 17:07.14 | 2:23.03 | 77039 | 87766
8 | 19:30.17 | 3:21.53 | 87767 | 102894
9 | 22:51.70 | 3:30.52 | 102895 | 118696
10 | 26:22.47 | 5:55.70 | 118697 | 145391
11 | 32:18.42 | 4:23.62 | 145392 | 165178
12 | 36:42.29 | 1:32.47 | 165179 | 172125
13 | 38:15.01 | 1:03.10 | 172126 | 176860
14 | 39:18.11 | 5:35.72 | 176861 | 202057
15 | 44:54.08 | 2:02.70 | 202058 | 211277
16 | 46:57.03 | 2:37.08 | 211278 | 223060
17 | 49:34.11 | 4:32.74 | 223061 | 243534
18 | 54:07.10 | 1:10.35 | 243535 | 248819

Характеристики диапазона извлечения и сообщения об ошибках

Выбранный диапазон

Имя файла C:\Unknown Artist - Святогорские псалты-5.wav

Проблемы синхронизации 0:00:43

Пиковый уровень 99.2 %
CRC копии 828C0B3A
Копирование завершено

Ошибок не произошло

Конец отчёта

CD6.
Exact Audio Copy V0.99 prebeta 5 from 4. May 2009

Отчёт EAC об извлечении, выполненном 1. февраля 2011, 21:41

Unknown Artist / Святогорские псалты-6

Дисковод: ASUS DRW-2014L1T Adapter: 2 ID: 1

Режим чтения : Скоростной

Коррекция смещения при чтении : 0
Способность читать области Lead-in и Lead-out : Нет
Заполнение пропущенных сэмплов тишиной : Да
Удаление блоков с тишиной в начале и конце : Нет
При вычислениях CRC использовались нулевые сэмплы : Нет
Интерфейс : Встроенный Win32-интерфейс для Win NT/2000

Выходной формат : Внутренние WAV-операции
Формат сэмплов : 44.100 Гц; 16 бит; стерео

TOC извлечённого CD

Трек | Старт | Длительность | Начальный сектор | Конечный сектор
---------------------------------------------------------------------
1 | 0:00.00 | 2:43.61 | 0 | 12285
2 | 2:43.61 | 2:03.12 | 12286 | 21522
3 | 4:46.73 | 2:05.36 | 21523 | 30933
4 | 6:52.34 | 1:59.10 | 30934 | 39868
5 | 8:51.44 | 0:53.14 | 39869 | 43857
6 | 9:44.58 | 1:46.64 | 43858 | 51871
7 | 11:31.47 | 1:20.06 | 51872 | 57877
8 | 12:51.53 | 1:56.27 | 57878 | 66604
9 | 14:48.05 | 3:27.38 | 66605 | 82167
10 | 18:15.43 | 0:49.64 | 82168 | 85906
11 | 19:05.32 | 0:25.58 | 85907 | 87839
12 | 19:31.15 | 0:42.00 | 87840 | 90989
13 | 20:13.15 | 0:35.32 | 90990 | 93646
14 | 20:48.47 | 0:31.18 | 93647 | 95989
15 | 21:19.65 | 0:29.12 | 95990 | 98176
16 | 21:49.02 | 0:40.43 | 98177 | 101219
17 | 22:29.45 | 0:49.43 | 101220 | 104937
18 | 23:19.13 | 0:43.50 | 104938 | 108212
19 | 24:02.63 | 1:09.61 | 108213 | 113448
20 | 25:12.49 | 1:24.21 | 113449 | 119769
21 | 26:36.70 | 1:58.70 | 119770 | 128689
22 | 28:35.65 | 1:48.25 | 128690 | 136814
23 | 30:24.15 | 1:50.46 | 136815 | 145110
24 | 32:14.61 | 2:31.56 | 145111 | 156491
25 | 34:46.42 | 3:07.20 | 156492 | 170536
26 | 37:53.62 | 8:12.63 | 170537 | 207499
27 | 46:06.50 | 2:46.43 | 207500 | 219992
28 | 48:53.18 | 3:18.30 | 219993 | 234872
29 | 52:11.48 | 3:28.41 | 234873 | 250513
30 | 55:40.14 | 8:13.53 | 250514 | 287541

Характеристики диапазона извлечения и сообщения об ошибках

Выбранный диапазон

Имя файла C:\Unknown Artist - Святогорские псалты-6.wav

Проблемы синхронизации 0:00:43

Пиковый уровень 100.0 %
CRC копии 7C4AEE38
Копирование завершено

Ошибок не произошло

Конец отчёта

CD7.
Exact Audio Copy V0.99 prebeta 5 from 4. May 2009

Отчёт EAC об извлечении, выполненном 1. февраля 2011, 21:49

Unknown Artist / Святогорские псалты-7

Дисковод: ASUS DRW-2014L1T Adapter: 2 ID: 1

Режим чтения : Скоростной

Коррекция смещения при чтении : 0
Способность читать области Lead-in и Lead-out : Нет
Заполнение пропущенных сэмплов тишиной : Да
Удаление блоков с тишиной в начале и конце : Нет
При вычислениях CRC использовались нулевые сэмплы : Нет
Интерфейс : Встроенный Win32-интерфейс для Win NT/2000

Выходной формат : Внутренние WAV-операции
Формат сэмплов : 44.100 Гц; 16 бит; стерео

TOC извлечённого CD

Трек | Старт | Длительность | Начальный сектор | Конечный сектор
---------------------------------------------------------------------
1 | 0:00.00 | 0:28.06 | 0 | 2105
2 | 0:28.06 | 4:46.17 | 2106 | 23572
3 | 5:14.23 | 5:08.37 | 23573 | 46709
4 | 10:22.60 | 2:52.47 | 46710 | 59656
5 | 13:15.32 | 2:37.28 | 59657 | 71459
6 | 15:52.60 | 1:21.34 | 71460 | 77568
7 | 17:14.19 | 2:25.30 | 77569 | 88473
8 | 19:39.49 | 5:04.20 | 88474 | 111293
9 | 24:43.69 | 2:13.10 | 111294 | 121278
10 | 26:57.04 | 1:06.27 | 121279 | 126255
11 | 28:03.31 | 2:08.42 | 126256 | 135897
12 | 30:11.73 | 1:19.34 | 135898 | 141856
13 | 31:31.32 | 1:30.73 | 141857 | 148679
14 | 33:02.30 | 1:03.48 | 148680 | 153452
15 | 34:06.03 | 1:54.16 | 153453 | 162018
16 | 36:00.19 | 0:47.73 | 162019 | 165616
17 | 36:48.17 | 2:12.16 | 165617 | 175532
18 | 39:00.33 | 5:39.53 | 175533 | 201010
19 | 44:40.11 | 2:41.00 | 201011 | 213085
20 | 47:21.11 | 0:48.12 | 213086 | 216697
21 | 48:09.23 | 0:24.47 | 216698 | 218544
22 | 48:33.70 | 1:37.39 | 218545 | 225858
23 | 50:11.34 | 0:50.11 | 225859 | 229619
24 | 51:01.45 | 0:49.03 | 229620 | 233297
25 | 51:50.48 | 3:42.33 | 233298 | 249980

Характеристики диапазона извлечения и сообщения об ошибках

Выбранный диапазон

Имя файла C:\Unknown Artist - Святогорские псалты-7.wav

Проблемы синхронизации 0:00:41

Пиковый уровень 100.0 %
CRC копии C932F2D9
Копирование завершено

Ошибок не произошло

Конец отчёта

CD8.
Exact Audio Copy V0.99 prebeta 5 from 4. May 2009

Отчёт EAC об извлечении, выполненном 1. февраля 2011, 21:53

Unknown Artist / Святогорские псалты-8

Дисковод: ASUS DRW-2014L1T Adapter: 2 ID: 1

Режим чтения : Скоростной

Коррекция смещения при чтении : 0
Способность читать области Lead-in и Lead-out : Нет
Заполнение пропущенных сэмплов тишиной : Да
Удаление блоков с тишиной в начале и конце : Нет
При вычислениях CRC использовались нулевые сэмплы : Нет
Интерфейс : Встроенный Win32-интерфейс для Win NT/2000

Выходной формат : Внутренние WAV-операции
Формат сэмплов : 44.100 Гц; 16 бит; стерео

TOC извлечённого CD

Трек | Старт | Длительность | Начальный сектор | Конечный сектор
---------------------------------------------------------------------
1 | 0:00.00 | 10:12.03 | 0 | 45902
2 | 10:12.03 | 6:28.66 | 45903 | 75068
3 | 16:40.69 | 3:13.14 | 75069 | 89557
4 | 19:54.08 | 1:36.10 | 89558 | 96767
5 | 21:30.18 | 3:25.72 | 96768 | 112214
6 | 24:56.15 | 4:02.18 | 112215 | 130382
7 | 28:58.33 | 1:38.36 | 130383 | 137768
8 | 30:36.69 | 4:40.13 | 137769 | 158781
9 | 35:17.07 | 3:14.05 | 158782 | 173336
10 | 38:31.12 | 4:39.65 | 173337 | 194326
11 | 43:11.02 | 10:07.70 | 194327 | 239921
12 | 53:18.72 | 4:28.27 | 239922 | 260048
13 | 57:47.24 | 3:53.36 | 260049 | 277559

Характеристики диапазона извлечения и сообщения об ошибках

Выбранный диапазон

Имя файла C:\Unknown Artist - Святогорские псалты-8.wav

Проблемы синхронизации 0:00:42

Пиковый уровень 40.5 %
CRC копии 391483E7
Копирование завершено

Ошибок не произошло

Конец отчёта

CD9.
Exact Audio Copy V0.99 prebeta 5 from 4. May 2009

Отчёт EAC об извлечении, выполненном 1. февраля 2011, 21:58

Unknown Artist / Святогорские псалты-9

Дисковод: ASUS DRW-2014L1T Adapter: 2 ID: 1

Режим чтения : Скоростной

Коррекция смещения при чтении : 0
Способность читать области Lead-in и Lead-out : Нет
Заполнение пропущенных сэмплов тишиной : Да
Удаление блоков с тишиной в начале и конце : Нет
При вычислениях CRC использовались нулевые сэмплы : Нет
Интерфейс : Встроенный Win32-интерфейс для Win NT/2000

Выходной формат : Внутренние WAV-операции
Формат сэмплов : 44.100 Гц; 16 бит; стерео

TOC извлечённого CD

Трек | Старт | Длительность | Начальный сектор | Конечный сектор
---------------------------------------------------------------------
1 | 0:00.00 | 5:01.68 | 0 | 22642
2 | 5:01.68 | 3:24.14 | 22643 | 37956
3 | 8:26.07 | 2:28.45 | 37957 | 49101
4 | 10:54.52 | 5:43.37 | 49102 | 74863
5 | 16:38.14 | 15:07.52 | 74864 | 142940
6 | 31:45.66 | 5:41.22 | 142941 | 168537
7 | 37:27.13 | 8:07.44 | 168538 | 205106
8 | 45:34.57 | 0:27.09 | 205107 | 207140
9 | 46:01.66 | 0:39.74 | 207141 | 210139
10 | 46:41.65 | 4:17.06 | 210140 | 229420
11 | 50:58.71 | 1:12.16 | 229421 | 234836
12 | 52:11.12 | 0:58.02 | 234837 | 239188
13 | 53:09.14 | 1:42.38 | 239189 | 246876
14 | 54:51.52 | 4:21.21 | 246877 | 266472
15 | 59:12.73 | 0:33.68 | 266473 | 269015
16 | 59:46.66 | 3:45.16 | 269016 | 285906

Характеристики диапазона извлечения и сообщения об ошибках

Выбранный диапазон

Имя файла C:\Unknown Artist - Святогорские псалты-9.wav

Проблемы синхронизации 0:00:43

Пиковый уровень 78.8 %
CRC копии EA057D67
Копирование завершено

Ошибок не произошло

Конец отчёта

CD10.
Exact Audio Copy V0.99 prebeta 5 from 4. May 2009

Отчёт EAC об извлечении, выполненном 1. февраля 2011, 22:05

Unknown Artist / Святогорские псалты-10

Дисковод: ASUS DRW-2014L1T Adapter: 2 ID: 1

Режим чтения : Скоростной

Коррекция смещения при чтении : 0
Способность читать области Lead-in и Lead-out : Нет
Заполнение пропущенных сэмплов тишиной : Да
Удаление блоков с тишиной в начале и конце : Нет
При вычислениях CRC использовались нулевые сэмплы : Нет
Интерфейс : Встроенный Win32-интерфейс для Win NT/2000

Выходной формат : Внутренние WAV-операции
Формат сэмплов : 44.100 Гц; 16 бит; стерео

TOC извлечённого CD

Трек | Старт | Длительность | Начальный сектор | Конечный сектор
---------------------------------------------------------------------
1 | 0:00.00 | 2:53.42 | 0 | 13016
2 | 2:53.42 | 1:52.12 | 13017 | 21428
3 | 4:45.54 | 1:12.24 | 21429 | 26852
4 | 5:58.03 | 3:55.09 | 26853 | 44486
5 | 9:53.12 | 3:29.72 | 44487 | 60233
6 | 13:23.09 | 4:55.07 | 60234 | 82365
7 | 18:18.16 | 4:52.56 | 82366 | 104321
8 | 23:10.72 | 3:35.36 | 104322 | 120482
9 | 26:46.33 | 9:40.31 | 120483 | 164013
10 | 36:26.64 | 3:25.64 | 164014 | 179452
11 | 39:52.53 | 2:22.46 | 179453 | 190148
12 | 42:15.24 | 2:51.10 | 190149 | 202983
13 | 45:06.34 | 0:40.50 | 202984 | 206033
14 | 45:47.09 | 3:38.52 | 206034 | 222435
15 | 49:25.61 | 3:55.67 | 222436 | 240127
16 | 53:21.53 | 1:57.18 | 240128 | 248920
17 | 55:18.71 | 3:18.24 | 248921 | 263794
18 | 58:37.20 | 2:58.53 | 263795 | 277197

Характеристики диапазона извлечения и сообщения об ошибках

Выбранный диапазон

Имя файла C:\Unknown Artist - Святогорские псалты-10.wav

Проблемы синхронизации 0:00:41

Пиковый уровень 99.9 %
CRC копии 20FE6D78
Копирование завершено

Ошибок не произошло

Конец отчёта
Download

Войдите для скачивания торрент-файла

Как скачивать  ·   Правила трекера

[Профиль]  [ЛС] 

+Сергей+

Стаж: 6 лет 5 месяцев

Сообщений: 225

Откуда: Москва

Russia

post 10-Апр-2011 21:27 (спустя 2 месяца 8 дней)

[Цитировать] 

Благодарю.
[Профиль]  [ЛС] 

Vika

Стаж: 8 лет 6 месяцев

Сообщений: 55

Germany

post 18-Апр-2011 17:38 (спустя 7 дней)

[Цитировать] 

Спаси Господи

_________________
Где потерял благо,там и ищи его.Золото ты должен Богу? Не примет Он от тебя жемчуг (с)Исаак Сирин
[Профиль]  [ЛС] 

vika010288

Стаж: 7 лет 10 месяцев

Сообщений: 459

Georgia

post 16-Июн-2011 22:56 (спустя 1 месяц 28 дней)

[Цитировать] 

Спасибо!По больше бы таких раздач!
[Профиль]  [ЛС] 

bsergey17

Стаж: 7 лет 5 месяцев

Сообщений: 12

Откуда: Украина

Ukraine

post 22-Дек-2011 16:05 (спустя 6 месяцев)

[Цитировать] 

Спаси Господи !
[Профиль]  [ЛС] 

ikhtis

Стаж: 5 лет 7 месяцев

Сообщений: 12

Ukraine

post 05-Янв-2012 20:17 (спустя 14 дней)

[Цитировать] 

Сергулет молодец!!!!!!!!!!!!Так держать....
[Профиль]  [ЛС] 

CEPBEP4

Стаж: 6 лет 2 месяца

Сообщений: 133

Откуда: ОРЕНБУРГ

Russia

post 10-Июн-2015 15:29 (спустя 3 года 5 месяцев)

[Цитировать] 

Спасибо качаю!

_________________
pic
pic 100 Мбит/с pic 100 Мбит/с pic
[Профиль]  [ЛС] 
Показать сообщения:    
Ответить на тему

Текущее время: 23-Май 07:07

Часовой пояс: GMT + 4



Вы не можете начинать темы
Вы не можете отвечать на сообщения
Вы не можете редактировать свои сообщения
Вы не можете удалять свои сообщения
Вы не можете голосовать в опросах
Вы не можете прикреплять файлы к сообщениям
Вы не можете скачивать файлы