Loading...
Error

(Церковная музыка и церковные хоры (lossless).) "Скорый Помощниче и Преславный Чудотворче". (Малая вечерня с акафистом преподобному Сергию игумену Радонежскому). - 2012, APE (image + .cue), lossless

Ответить на тему
Статистика раздачи
   
 
Автор Сообщение

СЕРГУЛЕТ

Стаж: 8 лет 7 месяцев

Сообщений: 2640

Откуда: LA ROMANA

Dominicanrep

post 07-Фев-2013 06:43

[Цитировать] 

"Скорый Помощниче и Преславный Чудотворче". (Малая вечерня с акафистом преподобному Сергию игумену Радонежскому).

pic
Страна: Россия. СТСЛ. Студия звукозаписи "Троицкий глас".
Жанр: Церковная музыка и церковные хоры (lossless).
Год выпуска: 2012
Формат: APE (image + .cue)
Битрейт аудио: lossless
Продолжительность: 01:13:17
Трэклист:
Малая вечерня с акафистом преподобному Сергию, игумену Радонежскому совершенная Святейшим Патриархом Московским и всея Руси Алексием II в сослужении архипастырей и братии Лавры 7 октября 2008 года в Троицком соборе Свято-Троицкой Сергиевой Лавры.
Хор Московской Духовной академии и семинарии под управлением иеромонаха Нестора (Волкова)
Чтец и канонарх: архимандрит Глеб (Кожевников).
Обложки диска+Содержание
picpic
EAC log
Exact Audio Copy V1.0 beta 2 from 29. April 2011

Отчёт EAC об извлечении, выполненном 20. января 2013, 17:36

Хор МДА / Скорый Помощниче и Преславный Чудотворче

Дисковод: ASUS DRW-2014L1T Adapter: 2 ID: 1

Режим чтения : Достоверность
Использование точного потока : Да
Отключение кэша аудио : Да
Использование указателей C2 : Нет

Коррекция смещения при чтении : 6
Способность читать области Lead-in и Lead-out : Нет
Заполнение пропущенных сэмплов тишиной : Да
Удаление блоков с тишиной в начале и конце : Нет
При вычислениях CRC использовались нулевые сэмплы : Да
Интерфейс : Встроенный Win32-интерфейс для Win NT/2000

Выходной формат : Внутренние WAV-операции
Формат сэмплов : 44.100 Гц; 16 бит; стерео

TOC извлечённого CD

Трек | Старт | Длительность | Начальный сектор | Конечный сектор
---------------------------------------------------------------------
1 | 0:00.00 | 1:49.32 | 0 | 8206
2 | 1:49.32 | 2:37.67 | 8207 | 20048
3 | 4:27.24 | 3:15.02 | 20049 | 34675
4 | 7:42.26 | 0:43.11 | 34676 | 37911
5 | 8:25.37 | 1:00.47 | 37912 | 42458
6 | 9:26.09 | 1:40.31 | 42459 | 49989
7 | 11:06.40 | 1:16.44 | 49990 | 55733
8 | 12:23.09 | 1:04.51 | 55734 | 60584
9 | 13:27.60 | 2:12.10 | 60585 | 70494
10 | 15:39.70 | 3:05.22 | 70495 | 84391
11 | 18:45.17 | 1:04.44 | 84392 | 89235
12 | 19:49.61 | 2:22.44 | 89236 | 99929
13 | 22:12.30 | 1:18.04 | 99930 | 105783
14 | 23:30.34 | 2:28.55 | 105784 | 116938
15 | 25:59.14 | 1:01.23 | 116939 | 121536
16 | 27:00.37 | 2:23.38 | 121537 | 132299
17 | 29:24.00 | 1:09.70 | 132300 | 137544
18 | 30:33.70 | 3:00.06 | 137545 | 151050
19 | 33:34.01 | 1:09.66 | 151051 | 156291
20 | 34:43.67 | 1:53.57 | 156292 | 164823
21 | 36:37.49 | 1:00.07 | 164824 | 169330
22 | 37:37.56 | 1:38.11 | 169331 | 176691
23 | 39:15.67 | 0:45.17 | 176692 | 180083
24 | 40:01.09 | 1:43.65 | 180084 | 187873
25 | 41:44.74 | 0:47.12 | 187874 | 191410
26 | 42:32.11 | 2:01.43 | 191411 | 200528
27 | 44:33.54 | 1:07.57 | 200529 | 205610
28 | 45:41.36 | 2:20.53 | 205611 | 216163
29 | 48:02.14 | 1:04.51 | 216164 | 221014
30 | 49:06.65 | 2:29.48 | 221015 | 232237
31 | 51:36.38 | 1:09.61 | 232238 | 237473
32 | 52:46.24 | 1:58.38 | 237474 | 246361
33 | 54:44.62 | 3:56.55 | 246362 | 264116
34 | 58:41.42 | 2:15.00 | 264117 | 274241
35 | 60:56.42 | 1:26.30 | 274242 | 280721
36 | 62:22.72 | 4:21.51 | 280722 | 300347
37 | 66:44.48 | 6:32.65 | 300348 | 329812

Характеристики диапазона извлечения и сообщения об ошибках

Выбранный диапазон

Имя файла C:\Хор МДА - Скорый Помощниче и Преславный Чудотворче.wav

Пиковый уровень 76.2 %
Скорость извлечения 8.3 X
Качество диапазона 100.0 %
CRC копии 784545B6
Копирование... OK

Ошибок не произошло

Конец отчёта

==== Контрольная сумма отчёта BB37D22F4B8FA210CC29E87F54F9C9F27D5862B1857C3F0595A4AE2FADF84CF7 ====
Download

Войдите на сайт, чтобы увидеть полную информацию.

Как скачивать  ·   Правила трекера

[Профиль]  [ЛС] 

shymsknik

Стаж: 6 лет 8 месяцев

Сообщений: 179

Russia

post 06-Июн-2013 00:21 (спустя 3 месяца 26 дней)

[Цитировать] 

Спаси Господи.
[Профиль]  [ЛС] 

CEPBEP4

Стаж: 6 лет 6 месяцев

Сообщений: 133

Откуда: ОРЕНБУРГ

Russia

post 07-Июн-2015 11:38 (спустя 2 года)

[Цитировать] 

Спасибо.

_________________
pic
pic 100 Мбит/с pic 100 Мбит/с pic
[Профиль]  [ЛС] 
Показать сообщения:    
Ответить на тему

Текущее время: 21-Сен 02:00

Часовой пояс: GMT + 4



Вы не можете начинать темы
Вы не можете отвечать на сообщения
Вы не можете редактировать свои сообщения
Вы не можете удалять свои сообщения
Вы не можете голосовать в опросах
Вы не можете прикреплять файлы к сообщениям
Вы не можете скачивать файлы