Loading...
Error

(Церковная музыка и церковные хоры (lossless).) "Молебен Христу за всякое прошение" (по древнему чину). - 2009, APE (image + .cue), lossless

Ответить на тему
Статистика раздачи
   
 
Автор Сообщение

СЕРГУЛЕТ

Стаж: 9 лет 6 месяцев

Сообщений: 2637

Откуда: LA ROMANA

Dominicanrep

post 03-Ноя-2009 19:30

[Цитировать] 

"Молебен Христу за всякое прошение" (по древнему чину).

pic
Страна: Россия.
Жанр: Церковная музыка и церковные хоры (lossless).
Год выпуска: 2009
Формат: APE (image + .cue)
Битрейт аудио: lossless
Продолжительность: 01:01:29
Обложки+Содержание
picpicpic
Чтец и исполнитель песнопений Сергей Петрович Пичугин.
EAC log
Exact Audio Copy V0.99 prebeta 5 from 4. May 2009

Отчёт EAC об извлечении, выполненном 3. ноября 2009, 12:49

Сергей Пичугин / Молебен Господу за всякое прошение

Дисковод: ASUS BC-1205PT Adapter: 1 ID: 0

Режим чтения : Достоверность
Использование точного потока : Да
Отключение кэша аудио : Да
Использование указателей C2 : Нет

Коррекция смещения при чтении : 667
Способность читать области Lead-in и Lead-out : Нет
Заполнение пропущенных сэмплов тишиной : Да
Удаление блоков с тишиной в начале и конце : Нет
При вычислениях CRC использовались нулевые сэмплы : Да
Интерфейс : Встроенный Win32-интерфейс для Win NT/2000

Выходной формат : Внутренние WAV-операции
Формат сэмплов : 44.100 Гц; 16 бит; стерео

TOC извлечённого CD

Трек | Старт | Длительность | Начальный сектор | Конечный сектор
---------------------------------------------------------------------
1 | 0:00.00 | 1:05.23 | 0 | 4897
2 | 1:05.23 | 5:17.67 | 4898 | 28739
3 | 6:23.15 | 4:25.64 | 28740 | 48678
4 | 10:49.04 | 2:25.42 | 48679 | 59595
5 | 13:14.46 | 3:19.33 | 59596 | 74553
6 | 16:34.04 | 3:33.63 | 74554 | 90591
7 | 20:07.67 | 1:28.30 | 90592 | 97221
8 | 21:36.22 | 3:07.21 | 97222 | 111267
9 | 24:43.43 | 3:25.67 | 111268 | 126709
10 | 28:09.35 | 3:39.55 | 126710 | 143189
11 | 31:49.15 | 1:45.32 | 143190 | 151096
12 | 33:34.47 | 2:11.46 | 151097 | 160967
13 | 35:46.18 | 3:07.27 | 160968 | 175019
14 | 38:53.45 | 4:00.44 | 175020 | 193063
15 | 42:54.14 | 3:40.37 | 193064 | 209600
16 | 46:34.51 | 3:22.67 | 209601 | 224817
17 | 49:57.43 | 3:46.51 | 224818 | 241818
18 | 53:44.19 | 0:42.13 | 241819 | 244981
19 | 54:26.32 | 1:21.54 | 244982 | 251110
20 | 55:48.11 | 1:26.49 | 251111 | 257609
21 | 57:14.60 | 1:04.29 | 257610 | 262438
22 | 58:19.14 | 0:55.65 | 262439 | 266628
23 | 59:15.04 | 0:37.44 | 266629 | 269447
24 | 59:52.48 | 0:25.73 | 269448 | 271395
25 | 60:18.46 | 1:10.44 | 271396 | 276689

Характеристики диапазона извлечения и сообщения об ошибках

Выбранный диапазон

Имя файла C:\Сергей Пичугин - Молебен Господу за всякое прошение.wav

Пиковый уровень 100.0 %
Качество диапазона 100.0 %
CRC копии F7B07546
Копирование... OK

Ошибок не произошло
Download

Войдите на сайт, чтобы увидеть полную информацию.

Как скачивать  ·   Правила трекера

[Профиль]  [ЛС] 

Ofseether.

Стаж: 8 лет 9 месяцев

Сообщений: 2

Откуда: Москва

Russia

post 07-Дек-2009 02:13 (спустя 1 месяц 3 дня)

[Цитировать] 

Спасибо!!!
[Профиль]  [ЛС] 

talalai

Стаж: 3 года 3 месяца

Сообщений: 4

post 13-Май-2015 08:33 (спустя 5 лет 5 месяцев)

[Цитировать] 

Спаси Бог.
[Профиль]  [ЛС] 
Показать сообщения:    
Ответить на тему

Текущее время: 17-Авг 07:37

Часовой пояс: GMT + 4



Вы не можете начинать темы
Вы не можете отвечать на сообщения
Вы не можете редактировать свои сообщения
Вы не можете удалять свои сообщения
Вы не можете голосовать в опросах
Вы не можете прикреплять файлы к сообщениям
Вы не можете скачивать файлы