Loading...
Error

(Богослужебные песнопения) Акафист Почаевской иконе Пресвятой Богородицы - 2009, FLAC (image + .cue)+ mp3 320 Kbps

Ответить на тему
Статистика раздачи
   
 
Автор Сообщение

сервп62

Стаж: 8 лет 7 месяцев

Сообщений: 303

post 26-Окт-2009 01:14

[Цитировать] 

Акафист Почаевской иконе Пресвятой Богородицы
pic
Страна: Украина (Почаевская Лавра)
Жанр: Богослужебны​е песнопения
Год выпуска: 2009
Формат:: FLAC (image + .cue) + MP3
Битрейт аудио: lossless + 320 Kbps
Дополнительно: В папке lossless выложены flac и cue файлы, в папке mp3 выложены файлы mp3 с битрейтом 320 Kbps, в папке обложки приложены сканы обложки и диска в разрешении 300 dpi
При добавлении закачки выбираем соответствующие папки
список песнопений
01. «Радуйся, Похвало Почаевская» Слово о Почаевской иконе - Блаженнейший Митрополит Киевский и Всея Украины Владимир 6:23
02. «Бог Господь» со стихи 2:05
03. Тропарь «Пред святою Твоею иконою» 1:34
04. Кондак 1, «Взбранной Воеводе» 4:02
05 - 27. Икос, Кондак 1 -12 38:23
28. Кондак 13 2:00
29. «О всепетая Мати», трио 4:18
30. Икос 1 2:26
31. Кондак 1 (глас 8, обиход) 1:23
32. Молитва «К Тебе, о Богомати» 4:23
33. Величание «Достойно есть» 1:24
34. «Под твою милость» 2:11
35. «Непроходимая врата» 1:38
отчёт EAC об извлечении
Exact Audio Copy V0.99 prebeta 4 from 23. January 2008

Отчёт EAC об извлечении, выполненном 23. октября 2009, 23:36

Unknown Artist / Unknown Title

Дисковод: Optiarc DVD RW AD-7530A Adapter: 0 ID: 1

Режим чтения : Достоверность
Использование точного потока : Да
Отключение кэша аудио : Да
Использование указателей C2 : Нет

Комбинированное смещение чтения/записи : 0
Способность читать области Lead-in и Lead-out : Нет
Заполнение пропущенных сэмплов тишиной : Да
Удаление блоков с тишиной в начале и конце : Нет
При вычислениях CRC использовались нулевые сэмплы : Да
Интерфейс : Установленный внешний ASPI-интерфейс

Выходной формат : Внутренние WAV-операции
Формат сэмплов : 44.100 Гц; 16 бит; стерео

TOC извлечённого CD

Трек | Старт | Длительность | Начальный сектор | Конечный сектор
---------------------------------------------------------------------
1 | 0:00.00 | 6:23.13 | 0 | 28737
2 | 6:23.13 | 2:04.39 | 28738 | 38076
3 | 8:27.52 | 1:33.41 | 38077 | 45092
4 | 10:01.18 | 4:01.65 | 45093 | 63232
5 | 14:03.08 | 2:18.74 | 63233 | 73656
6 | 16:22.07 | 0:37.45 | 73657 | 76476
7 | 16:59.52 | 2:12.48 | 76477 | 86424
8 | 19:12.25 | 0:51.62 | 86425 | 90311
9 | 20:04.12 | 2:16.58 | 90312 | 100569
10 | 22:20.70 | 0:52.64 | 100570 | 104533
11 | 23:13.59 | 2:09.71 | 104534 | 114279
12 | 25:23.55 | 1:00.70 | 114280 | 118849
13 | 26:24.50 | 2:10.42 | 118850 | 128641
14 | 28:35.17 | 0:52.68 | 128642 | 132609
15 | 29:28.10 | 2:26.31 | 132610 | 143590
16 | 31:54.41 | 0:52.01 | 143591 | 147491
17 | 32:46.42 | 2:25.02 | 147492 | 158368
18 | 35:11.44 | 0:45.66 | 158369 | 161809
19 | 35:57.35 | 2:09.52 | 161810 | 171536
20 | 38:07.12 | 0:56.52 | 171537 | 175788
21 | 39:03.64 | 2:13.73 | 175789 | 185836
22 | 41:17.62 | 0:57.11 | 185837 | 190122
23 | 42:14.73 | 2:22.30 | 190123 | 200802
24 | 44:37.28 | 0:41.06 | 200803 | 203883
25 | 45:18.34 | 2:02.41 | 203884 | 213074
26 | 47:21.00 | 0:53.45 | 213075 | 217094
27 | 48:14.45 | 2:10.63 | 217095 | 226907
28 | 50:25.33 | 1:59.54 | 226908 | 235886
29 | 52:25.12 | 4:18.02 | 235887 | 255238
30 | 56:43.14 | 2:25.66 | 255239 | 266179
31 | 59:09.05 | 1:23.33 | 266180 | 272437
32 | 60:32.38 | 4:23.26 | 272438 | 292188
33 | 64:55.64 | 1:23.68 | 292189 | 298481
34 | 66:19.57 | 2:10.65 | 298482 | 308296
35 | 68:30.47 | 1:38.19 | 308297 | 315665

Характеристики диапазона извлечения и сообщения об ошибках

Выбранный диапазон

Имя файла D:\Почаевский Акафист\Unknown Artist - Unknown Title.wav

Пиковый уровень 84.3 %
Качество диапазона 99.8 %
CRC копии 27C26A38
Копирование... OK

Ошибок не произошло

Конец отчёта
Download

Войдите на сайт, чтобы увидеть полную информацию.

Как скачивать  ·   Правила трекера



Последний раз редактировалось: сервп62 (2009-10-26 02:37), всего редактировалось 2 раз(а)
[Профиль]  [ЛС] 

Academic Crack

Администратор

Стаж: 8 лет 9 месяцев

Сообщений: 2080

Russia

post 26-Окт-2009 02:03 (спустя 48 минут)

[Цитировать] 

Сначала недоумевал, почему у меня постер не отображается, поскольку по определению допустить, что он был забыт, было сложно. Но все же выкачал обложку из раздачи и стал делать постер. Когда зашел в режим редактирования, увидел, что он все же есть. Причина оказалась проста. В фильтрах Opera AC по умолчанию блокируется любой путь *ad*, как реклама. Это и во многих баннерорезалках тоже используется. Поэтому позволил себе перезалить постер. Правда, единственное, на что обратил внимание при добавлении торрент-файла на закачку обложечки - размер странно маленький. Когда она докачалась, стало все понятно. Разрешение там все же 96 dpi. Обложку диска не выкачивал пока, наверное, завтра докачаю всю раздачу. Поэтому в топике пока тоже исправлю, что 96 dpi
Скриншот
pic
Если потом будет нужно или будет желание, можно будет пересканировать обложку и пересоздать торрент-файл раздачи.

_________________
pic
pic 100 Мбит/с, pic 100 Мбит/с.
Исправили раздачу? Пишите в личку со ссылкой на раздачу.
[Профиль]  [ЛС] 

сервп62

Стаж: 8 лет 7 месяцев

Сообщений: 303

post 26-Окт-2009 02:49 (спустя 46 минут)

[Цитировать] 

Виноват (забыл проверить разрешение при сканировании), исправился, пересканировал обложку, сделал новый постер и перезалил торрент-файл
[Профиль]  [ЛС] 

Academic Crack

Администратор

Стаж: 8 лет 9 месяцев

Сообщений: 2080

Russia

post 26-Окт-2009 02:55 (спустя 5 минут)

[Цитировать] 

Да, ничего страшного, с кем не бывает. Теперь забираю все + поддержу раздачу.

_________________
pic
pic 100 Мбит/с, pic 100 Мбит/с.
Исправили раздачу? Пишите в личку со ссылкой на раздачу.
[Профиль]  [ЛС] 

gorec888

Стаж: 8 лет 3 месяца

Сообщений: 4

Ukraine

post 02-Ноя-2009 00:42 (спустя 6 дней)

[Цитировать] 

очень понравилось пение спасибо!
[Профиль]  [ЛС] 

brd_eugene

Стаж: 8 лет 9 месяцев

Сообщений: 64

Ukraine

post 01-Дек-2009 10:06 (спустя 29 дней)

[Цитировать] 

Спасибо Автору... Хотел купить в лавке в Почаеве, да не хватало денег... А теперь могу послушать.

СПАСИБО!
[Профиль]  [ЛС] 

xommma

Стаж: 7 лет 7 месяцев

Сообщений: 24

Ukraine

post 13-Янв-2011 16:43 (спустя 1 год 1 месяц)

[Цитировать] 

Огромное спасибо! Спаси Господи!
[Профиль]  [ЛС] 

Lyudmila

post 26-Сен-2011 00:23 (спустя 8 месяцев)

[Цитировать] 

Огромнейшее спасибо!
 

shymsknik

Стаж: 6 лет 8 месяцев

Сообщений: 179

Russia

post 21-Окт-2011 02:11 (спустя 25 дней)

[Цитировать] 

Спаси Господи!
[Профиль]  [ЛС] 

mano23

post 16-Авг-2012 19:57 (спустя 9 месяцев)

[Цитировать] 

Skorosti Daite PLz
 

саша3

Стаж: 2 года 5 месяцев

Сообщений: 13

post 30-Апр-2015 22:42 (спустя 2 года 8 месяцев)

[Цитировать] 

Благодарю!
[Профиль]  [ЛС] 
Показать сообщения:    
Ответить на тему

Текущее время: 19-Сен 22:42

Часовой пояс: GMT + 4



Вы не можете начинать темы
Вы не можете отвечать на сообщения
Вы не можете редактировать свои сообщения
Вы не можете удалять свои сообщения
Вы не можете голосовать в опросах
Вы не можете прикреплять файлы к сообщениям
Вы не можете скачивать файлы