Loading...
Error

(Церковная музыка и церковные хоры (lossless).) "Радуйся, мучениче Димитрие". CD1 - Песнопения Страстной седмицы. CD2 - Песнопения службы Великомученику Димитрию Солунскому. - 2008, APE (image + .cue), lossless

Ответить на тему
Статистика раздачи
   
 
Автор Сообщение

СЕРГУЛЕТ

Стаж: 8 лет 9 месяцев

Сообщений: 2640

Откуда: LA ROMANA

Dominicanrep

post 21-Ноя-2009 17:38

[Цитировать] 

"Радуйся, мучениче Димитрие". CD1 - Песнопения Страстной седмицы. CD2 - Песнопения службы Великомученику Димитрию Солунскому.

pic
Страна: Греция.
Жанр: Церковная музыка и церковные хоры (lossless).
Год выпуска: 2008
Формат: APE (image + .cue)
Битрейт аудио: lossless
Продолжительность: 00:55:03+01:12:57
Содержание
pic
Поёт фессалоникийский хор псалтов под руководством Иоанниса Лиакоса.
EAC log
Exact Audio Copy V0.99 prebeta 5 from 4. May 2009

Отчёт EAC об извлечении, выполненном 21. ноября 2009, 9:19

Хор псалтов / CD1-Песнопения Страстной Седмицы

Дисковод: ASUS BC-1205PT Adapter: 1 ID: 0

Режим чтения : Достоверность
Использование точного потока : Да
Отключение кэша аудио : Да
Использование указателей C2 : Нет

Коррекция смещения при чтении : 667
Способность читать области Lead-in и Lead-out : Нет
Заполнение пропущенных сэмплов тишиной : Да
Удаление блоков с тишиной в начале и конце : Нет
При вычислениях CRC использовались нулевые сэмплы : Да
Интерфейс : Встроенный Win32-интерфейс для Win NT/2000

Выходной формат : Внутренние WAV-операции
Формат сэмплов : 44.100 Гц; 16 бит; стерео

TOC извлечённого CD

Трек | Старт | Длительность | Начальный сектор | Конечный сектор
---------------------------------------------------------------------
1 | 0:00.00 | 4:58.20 | 0 | 22369
2 | 4:58.20 | 2:19.18 | 22370 | 32812
3 | 7:17.38 | 2:07.64 | 32813 | 42401
4 | 9:25.27 | 2:12.52 | 42402 | 52353
5 | 11:38.04 | 3:42.72 | 52354 | 69075
6 | 15:21.01 | 3:25.07 | 69076 | 84457
7 | 18:46.08 | 4:39.53 | 84458 | 105435
8 | 23:25.61 | 3:19.73 | 105436 | 120433
9 | 26:45.59 | 2:56.61 | 120434 | 133694
10 | 29:42.45 | 1:21.65 | 133695 | 139834
11 | 31:04.35 | 6:23.63 | 139835 | 168622
12 | 37:28.23 | 7:24.61 | 168623 | 201983
13 | 44:53.09 | 10:08.61 | 201984 | 247644

Характеристики диапазона извлечения и сообщения об ошибках

Выбранный диапазон

Имя файла C:\Хор псалтов - CD1-Песнопения Страстной Седмицы.wav

Пиковый уровень 98.0 %
Качество диапазона 100.0 %
CRC копии 9E32C29A
Копирование... OK

Ошибок не произошло

СD2
Exact Audio Copy V0.99 prebeta 5 from 4. May 2009

Отчёт EAC об извлечении, выполненном 21. ноября 2009, 12:47

Хор псалтов / Песнопения службы св. Димитрию

Дисковод: ASUS BC-1205PT Adapter: 1 ID: 0

Режим чтения : Достоверность
Использование точного потока : Да
Отключение кэша аудио : Да
Использование указателей C2 : Нет

Коррекция смещения при чтении : 667
Способность читать области Lead-in и Lead-out : Нет
Заполнение пропущенных сэмплов тишиной : Да
Удаление блоков с тишиной в начале и конце : Нет
При вычислениях CRC использовались нулевые сэмплы : Да
Интерфейс : Встроенный Win32-интерфейс для Win NT/2000

Выходной формат : Внутренние WAV-операции
Формат сэмплов : 44.100 Гц; 16 бит; стерео

TOC извлечённого CD

Трек | Старт | Длительность | Начальный сектор | Конечный сектор
---------------------------------------------------------------------
1 | 0:00.00 | 2:07.36 | 0 | 9560
2 | 2:07.36 | 8:32.71 | 9561 | 48031
3 | 10:40.32 | 9:34.38 | 48032 | 91119
4 | 20:14.70 | 5:19.67 | 91120 | 115111
5 | 25:34.62 | 28:59.62 | 115112 | 245598
6 | 54:34.49 | 13:37.05 | 245599 | 306878
7 | 68:11.54 | 3:26.54 | 306879 | 322382
8 | 71:38.33 | 1:17.37 | 322383 | 328194

Характеристики диапазона извлечения и сообщения об ошибках

Выбранный диапазон

Имя файла C:\Хор псалтов - Песнопения службы св. Димитрию.wav

Пиковый уровень 100.0 %
Качество диапазона 99.9 %
CRC копии 14B3176D
Копирование... OK

Ошибок не произошло
Download

Войдите на сайт, чтобы увидеть полную информацию.

Как скачивать  ·   Правила трекера

[Профиль]  [ЛС] 

CEPBEP4

Стаж: 6 лет 8 месяцев

Сообщений: 138

Откуда: ОРЕНБУРГ

Russia

post 10-Мар-2015 16:20 (спустя 5 лет 3 месяца)

[Цитировать] 

Отлично, спасибо!

_________________
pic
pic 100 Мбит/с pic 100 Мбит/с pic
[Профиль]  [ЛС] 

stepan-frunze

Стаж: 8 лет 8 месяцев

Сообщений: 2564

Russia

post 12-Мар-2015 16:44 (спустя 2 дня)

[Цитировать] 

спасибо!
[Профиль]  [ЛС] 

vika010288

Стаж: 8 лет 4 месяца

Сообщений: 458

Georgia

post 24-Мар-2015 22:48 (спустя 12 дней)

[Цитировать] 

Спаси Господи!
[Профиль]  [ЛС] 

nonono

Стаж: 2 года 9 месяцев

Сообщений: 9

post 14-Янв-2016 16:35 (спустя 9 месяцев)

[Цитировать] 

встаньте на раздачу плз
[Профиль]  [ЛС] 
Показать сообщения:    
Ответить на тему

Текущее время: 22-Ноя 07:56

Часовой пояс: GMT + 4



Вы не можете начинать темы
Вы не можете отвечать на сообщения
Вы не можете редактировать свои сообщения
Вы не можете удалять свои сообщения
Вы не можете голосовать в опросах
Вы не можете прикреплять файлы к сообщениям
Вы не можете скачивать файлы