Loading...
Error

(Церковная музыка Греции, Афона и Сербии (lossless).) "Песнопения Страстной Пятницы". Хор монастыря Св. Иоанна в пустыне. - 1999, WAVPack (tracks), lossless

Ответить на тему
Статистика раздачи
Скачали: [ 5 ]
   
 
Автор Сообщение

СЕРГУЛЕТ

Стаж: 8 лет 3 месяца

Сообщений: 2639

Откуда: LA ROMANA

Dominicanrep

post 31-Окт-2011 07:40

[Цитировать] 

"Песнопения Страстной Пятницы". Хор монастыря Св. Иоанна в пустыне.

pic
Страна: Израиль.
Жанр: Церковная музыка Греции, Афона и Сербии (lossless).
Год выпуска: 1999
Формат: WAVPack (tracks)
Битрейт аудио: lossless
Продолжительность: 00:53:12
Трэклист:
01. Аллилуия и тропарь Великой Пятницы, глас 8 - 04:20
02. Третий антифон службы Святых Страстей, глас 2 - 02:41
03. Блаженны службы Святых Страстей, глас 4 - 06:47
04. Эксапостиларий службы Святых Страстей, глас 3 - 02:01
05. Евангелие Девятого часа (Иоан. 19, 23-27), экфонетическое пение - 07:45
06. Вечерние псалмы и стихи на возжение светильников, гласы 1,2 и 6 - 06:36
07. Славник апостихов вечерни, глас 5 - 06:08
08. Статии Погребения, глас 5 - 16:50
EAC log
Exact Audio Copy V1.0 beta 3 from 29. August 2011

Отчёт EAC об извлечении, выполненном 21. октября 2011, 15:02

Monastery of St.John in the Desert choir / Deploration and Funeral of Christ

Дисковод: HL-DT-STDVDRAM GSA-H60N Adapter: 2 ID: 1

Режим чтения : Достоверность
Использование точного потока : Да
Отключение кэша аудио : Да
Использование указателей C2 : Нет

Коррекция смещения при чтении : 667
Способность читать области Lead-in и Lead-out : Нет
Заполнение пропущенных сэмплов тишиной : Да
Удаление блоков с тишиной в начале и конце : Нет
При вычислениях CRC использовались нулевые сэмплы : Да
Интерфейс : Встроенный Win32-интерфейс для Win NT/2000
Обработка зазоров : Добавлено к предыдущему треку

Выходной формат : Пользовательский кодировщик
Выбранный битрейт : 128 kBit/s
Качество : Высокий
Добавление ID3-тега : Нет
Утилита сжатия : C:\Users\Нектарий\AppData\Local\Microsoft\Windows\Temporary Internet Files\Content.IE5\1EEVCG15\wavpack[1].exe
Дополнительные параметры : -hm -w "Genre=%genre%" -w "Artist=%artist%" -w "Title=%title%" -w "Album=%albumtitle%" -w "Year=%year%" -w "Track=%tracknr%" -w "Comment=%comment%" %source% %dest%

TOC извлечённого CD

Трек | Старт | Длительность | Начальный сектор | Конечный сектор
---------------------------------------------------------------------
1 | 0:00.00 | 4:20.47 | 0 | 19546
2 | 4:20.47 | 2:41.05 | 19547 | 31626
3 | 7:01.52 | 6:47.73 | 31627 | 62224
4 | 13:49.50 | 2:01.15 | 62225 | 71314
5 | 15:50.65 | 7:45.37 | 71315 | 106226
6 | 23:36.27 | 6:36.65 | 106227 | 135991
7 | 30:13.17 | 6:08.65 | 135992 | 163656
8 | 36:22.07 | 16:50.30 | 163657 | 239436

Трек 1

Имя файла E:\Мои раздачи\lossless\Духовные песнопения\Monastery of St.John in the Desert\01 Alleluia and Troparion of Good Friday, mode 8.wav

Длина предзазора 0:00:02.00

Пиковый уровень 94.2 %
Скорость извлечения 1.0 X
Качество трека 99.9 %
CRC теста 3904DEC0
CRC копии 3904DEC0
Трек не обнаружен в базе AccurateRip
Копирование... OK

Трек 2

Имя файла E:\Мои раздачи\lossless\Духовные песнопения\Monastery of St.John in the Desert\02 3-rd Antiphon of the Holy Passion Service, m.2.wav

Пиковый уровень 94.0 %
Скорость извлечения 1.2 X
Качество трека 100.0 %
CRC теста C4B9C35A
CRC копии C4B9C35A
Трек не обнаружен в базе AccurateRip
Копирование... OK

Трек 3

Имя файла E:\Мои раздачи\lossless\Духовные песнопения\Monastery of St.John in the Desert\03 Beatitudes of the Holy Passion Service, m.4.wav

Пиковый уровень 94.1 %
Скорость извлечения 1.5 X
Качество трека 100.0 %
CRC теста 6392D241
CRC копии 6392D241
Трек не обнаружен в базе AccurateRip
Копирование... OK

Трек 4

Имя файла E:\Мои раздачи\lossless\Духовные песнопения\Monastery of St.John in the Desert\04 Exapostilarion of the Holy Passion Service, m.3.wav

Пиковый уровень 94.0 %
Скорость извлечения 1.3 X
Качество трека 100.0 %
CRC теста 3C8061C5
CRC копии 3C8061C5
Трек не обнаружен в базе AccurateRip
Копирование... OK

Трек 5

Имя файла E:\Мои раздачи\lossless\Духовные песнопения\Monastery of St.John in the Desert\05 Ninth Hour Gospel (Jn.19,23-27), Ekphonetic mode.wav

Пиковый уровень 94.2 %
Скорость извлечения 1.8 X
Качество трека 100.0 %
CRC теста 845A8998
CRC копии 845A8998
Трек не обнаружен в базе AccurateRip
Копирование... OK

Трек 6

Имя файла E:\Мои раздачи\lossless\Духовные песнопения\Monastery of St.John in the Desert\06 Vespers Lamp-lighting psalms&stichoi, modes 1,2,6.wav

Пиковый уровень 77.3 %
Скорость извлечения 2.0 X
Качество трека 100.0 %
CRC теста 839DD456
CRC копии 839DD456
Трек не обнаружен в базе AccurateRip
Копирование... OK

Трек 7

Имя файла E:\Мои раздачи\lossless\Духовные песнопения\Monastery of St.John in the Desert\07 Doxastikon on the Vespers' Aposticha, m.5.wav

Пиковый уровень 94.1 %
Скорость извлечения 1.9 X
Качество трека 99.9 %
CRC теста E5A92187
CRC копии E5A92187
Трек не обнаружен в базе AccurateRip
Копирование... OK

Трек 8

Имя файла E:\Мои раздачи\lossless\Духовные песнопения\Monastery of St.John in the Desert\08 Funeral stanzas, m.5.wav

Пиковый уровень 94.1 %
Скорость извлечения 2.3 X
Качество трека 99.9 %
CRC теста 85B1DEC6
CRC копии 85B1DEC6
Трек не обнаружен в базе AccurateRip
Копирование... OK

Ни одного трека нет в базе AccurateRip

Ошибок не произошло

Конец отчёта

==== Контрольная сумма отчёта FF57B892B668835135E8BC33241E9A1E3817168A6A42E563413394A47910D70C ====
Отсканированные обложки лежат в раздаче.
Download

Войдите для скачивания торрент-файла

Как скачивать  ·   Правила трекера

[Профиль]  [ЛС] 

zlatic

Стаж: 7 лет 6 месяцев

Сообщений: 250

Russia

post 17-Май-2012 02:30 (спустя 6 месяцев)

[Цитировать] 

Описание стянул с рутрекера.
Об исполнителе (группе)
pic
Монастырь святого Иоанна Предтечи в Пустыне находится недалеко от Иерусалима, рядом с местечком Эвен Сапир. Это место со времен крестоносцев почиталось как пустыня, в которой скрывалась праведная Елисавета со своим сыном Иоанном Предтечей, и где будущий Креститель возрастал в духовных подвигах. В конце 19-го века здесь начал восстанавливаться католический монастырь, принадлежащий ордену Францисканцев. С 80-х годов монастырь был отдан в аренду общине сирийских униатов (мелкитов), католиков восточного обряда, члены которой были по происхождению французами. Община проявляла глубокий интерес к восточной традиции, в том числе, певческой, в результате чего у них сложилась весьма своеобразная практика исполнения византийского распева на французском языке. Увлечение общины православными традициями стало слишком заметным, и Францисканцы указали им на дверь, неоправданно высоко подняв арендную плату. Это способствовало принятию общиной монастыря, вероятно, давно созревшего решения, и в начале 2000-х монастырь во главе с игуменом Самуилом перешел в Православие и основал новое поселение во Франции неподалеку от Каркассона
Об альбоме (сборнике)
Запись сделана еще во время пребывания монашеской общины на Святой Земле в 1999 году. К сожалению, на мой взгляд, это не самая интересная запись монастырского хора, но больше ничего мне достать пока не удалось. Однако, для людей, интересующихся византийской традицией, этот диск может представлять интерес.
Примечательно, что запись была сделана, когда монашеская община была на тот момент под юрисдикцией Мелькитского Греко-католического Патриархата-т. е униатов. Вот вездесущий "казачок"-Цесаревич не даст соврать, сам лично присутствовал (молитвенно) на записи этого альбома
Цесаревич на рутрекере писал:

Alexis XV писал(а):

s.condraxin, я молился вместе с монашеской братией, когда записывался этот диск.

Alexis XV писал(а):

1. Всё время своего пребывания в Святой Земле община находилась под омофором Мелькитского Греко-католического Патриархата. Предстоятель Церкви носит титул «Патриарха Антиохии и всего Востока, Александрии и Иерусалима».
Что-то не вяжется с сегодняшним бравурным утверждением мелькита-униата об "истинности" унии, да с большой буквы Smile
Цесаревич на рутрекере писал:

Alexis XV писал(а):

Славно поют бенедиктинцы! А ещё некоторые в Унии сомневаются. Smile
Еще как сомневаются , понимая ее порочность и целыми монастырями переходят в Православие.
[Профиль]  [ЛС] 

devss

Стаж: 7 лет 6 месяцев

Сообщений: 17

Откуда: РФ

Russia

post 20-Мар-2015 23:10 (спустя 2 года 10 месяцев)

[Цитировать] 

Прошу раздать. Спаси, Господи...
[Профиль]  [ЛС] 

vika010288

Стаж: 7 лет 11 месяцев

Сообщений: 459

Georgia

post 24-Мар-2015 22:37 (спустя 3 дня)

[Цитировать] 

благодарю.
[Профиль]  [ЛС] 
Показать сообщения:    
Ответить на тему

Текущее время: 29-Май 02:25

Часовой пояс: GMT + 4



Вы не можете начинать темы
Вы не можете отвечать на сообщения
Вы не можете редактировать свои сообщения
Вы не можете удалять свои сообщения
Вы не можете голосовать в опросах
Вы не можете прикреплять файлы к сообщениям
Вы не можете скачивать файлы