Loading...
Error

Подборка пасхальных песен для утренников (духовная музыка) 2015, MP3

Ответить на тему
Статистика раздачи
   
 
Автор Сообщение

Татьяна хв

Стаж: 6 лет 4 месяца

Сообщений: 56

post 18-Мар-2015 12:01

[Цитировать] 

Подборка пасхальных песен для утренников


pic
Страна: Россия, Украина, Белоруссия, Сербия

Жанр: духовная музыка

Год выпуска: 2015

Формат: MP3, wma (1)

Дополнительная информация:
Для преподавателей воскресных школ и просто для преподавателей, проводящих пасхальные утренники, предлагаю подборку пасхальных песен.
Они были скачаны из интернета в разное время, из разных мест и альбомов. Поэтому информация по файлам у них разная и даю её отдельно по каждому файлу в скрытом тексте.


Другие песни можно найти здесь:
http://pravtor.ru/viewtopic.php?t=14376

Тексты песен и ноты к некоторым из них вы найдете здесь:
http://pravtor.ru/viewtopic.php?t=14348
http://pravtor.ru/viewtopic.php?t=14375
Список песен
Белорусская пасхальная песня Анна Абикулова.mp3
Божий мир.mp3
В сердце радость но откуда (из сценки).mp3
Вербное воскресенье.mp3
Весенний канон.mp3
Внимай земля и свод небес Христос воскрес.mp3
Воистину воскрес Женя Поддубная.mp3
Вы слышали как утром пели птицы (голосом).mp3
Выйди-выйди, солнышко.mp3
Звонят-звонят колокола.mp3
Из года в год (пасхальная).mp3
Кап-кап-кап.mp3
Кружится над землей Пасхальная песня минус.mp3
Кружится над землей Пасхальная песня.mp3
Ласточки Ершовы.mp3
Люди ликуйте Дивна Любоевич.mp3
Пасха в гости к нам пришла.mp3
Пасха Ершовы.mp3
Пасха Ирина Болдышева.mp3
Пасхальная песня с Кипра.mp3
Пасхальная сербская песня – Христос воскресе на русском.mp3
Пасхальная.mp3
Пасхальное утро.mp3
Пасхальное яичко Надежда Тананко.mp3
Пасхальное.mp3
Пасху радостно встречаем минус.mp3
Пасху радостно встречаем.mp3
Приключения электроника колокола минус.mp3
Пришла весна хор.mp3
Приют Отрада Пасхальная песня.mp3
Пусть солнце лучиком Пасхальным.wma
Радуйтесь Христос воскрес Сербская песня.mp3
С крыши - капели.mp3
Семь ступенек поста.mp3
Серый ослик пасхальная.mp3
Солнца лучики с небес (со словами).mp3
Христос Воскрес Ершовы.mp3
Христос воскрес иерей Тремаскин Евгений.mp3
Христос воскрес песня.mp3
Христос воскресе - радость принесе минус.mp3
Христос воскресе Ансамбль Петропавловская песня.mp3
Христос воскресе Надежда Тананко.mp3
Христос воскресе православная песня.mp3
Юлия Славянская Пасха.mp3
Юлия Славянская Я во храме пустом.mp3
Юлия Юрик Купола золотые украсили.mp3
Я во храме пустом (быстрее).mp3
Я во храме пустом Юлия Славянская короткая.mp3
Информация по трекам
Complete name : Христос воскресе - радость принесе минус.mp3
Format : MPEG Audio
File size : 3.49 MiB
Duration : 3mn 2s
Overall bit rate : 160 Kbps
Audio
Format : MPEG Audio
Format version : Version 1
Format profile : Layer 3
Duration : 3mn 2s
Bit rate mode : Constant
Bit rate : 160 Kbps
Channel(s) : 2 channels
Sampling rate : 44.1 KHz
Resolution : 16 bits
Stream size : 3.49 MiB (100%)

Complete name : Приключения электроника колокола минус.mp3
Format : MPEG Audio
File size : 3.55 MiB
Duration : 2mn 35s
Overall bit rate : 192 Kbps
Album : www.mp3minus.ru
Track name : Приключения Электроника
Performer : Колокола
Cover : Yes
Cover description : mp3minus
Cover type : File icon
Cover MIME : image/png
Comment : -
URL : http://www.mp3minus.ru/ru/priklyucheniya_elektronika/bells.mp3.html
Audio
Format : MPEG Audio
Format version : Version 1
Format profile : Layer 3
Duration : 2mn 35s
Bit rate mode : Constant
Bit rate : 192 Kbps
Channel(s) : 2 channels
Sampling rate : 44.1 KHz
Resolution : 16 bits
Stream size : 3.55 MiB (100%)

Complete name : Пасху радостно встречаем минус.mp3
Format : MPEG Audio
File size : 826 KiB
Duration : 52s 871ms
Overall bit rate : 128 Kbps
Track name : Track 1
Track name/Position : 1
Audio
Format : MPEG Audio
Format version : Version 1
Format profile : Layer 3
Duration : 52s 870ms
Bit rate mode : Constant
Bit rate : 128 Kbps
Channel(s) : 2 channels
Sampling rate : 44.1 KHz
Resolution : 16 bits
Stream size : 826 KiB (100%)

Complete name : Кружится над землей Пасхальная песня минус.mp3
Format : MPEG Audio
File size : 5.60 MiB
Duration : 3mn 3s
Overall bit rate : 256 Kbps
Writing library : LAME3.82
Audio
Format : MPEG Audio
Format version : Version 1
Format profile : Layer 3
Duration : 3mn 3s
Bit rate mode : Constant
Bit rate : 256 Kbps
Channel(s) : 2 channels
Sampling rate : 44.1 KHz
Resolution : 16 bits
Stream size : 5.60 MiB (100%)
Writing library : LAME3.82

Complete name : Божий мир.mp3
Format : MPEG Audio
File size : 4.35 MiB
Duration : 4mn 44s
Overall bit rate : 128 Kbps
Album : Письмо другу
Track name : Божий мир
Performer : Юлия Берёзова
Recorded date : 2002
Comment : 01.01.07
Audio
Format : MPEG Audio
Format version : Version 1
Format profile : Layer 3
Duration : 4mn 44s
Bit rate mode : Constant
Bit rate : 128 Kbps
Channel(s) : 2 channels
Sampling rate : 44.1 KHz
Resolution : 16 bits
Stream size : 4.35 MiB (100%)

Complete name : Вербное воскресенье.mp3
Format : MPEG Audio
File size : 4.93 MiB
Duration : 2mn 9s
Overall bit rate : 320 Kbps
Track name/Position : 14
Writing library : LAME3.96
Audio
Format : MPEG Audio
Format version : Version 1
Format profile : Layer 3
Duration : 2mn 9s
Bit rate mode : Constant
Bit rate : 320 Kbps
Channel(s) : 2 channels
Sampling rate : 44.1 KHz
Resolution : 16 bits
Stream size : 4.93 MiB (100%)
Writing library : LAME3.96

Complete name : Весенний канон.mp3
Format : MPEG Audio
File size : 2.06 MiB
Duration : 53s 942ms
Overall bit rate : 320 Kbps
Track name/Position : 8
Writing library : LAME3.96
Audio
Format : MPEG Audio
Format version : Version 1
Format profile : Layer 3
Duration : 53s 941ms
Bit rate mode : Constant
Bit rate : 320 Kbps
Channel(s) : 2 channels
Sampling rate : 44.1 KHz
Resolution : 16 bits
Stream size : 2.06 MiB (100%)
Writing library : LAME3.96

Complete name : Внимай земля и свод небес Христос воскрес.mp3
Format : MPEG Audio
File size : 3.29 MiB
Duration : 3mn 35s
Overall bit rate : 128 Kbps
Genre : Other
Audio
Format : MPEG Audio
Format version : Version 1
Format profile : Layer 3
Duration : 3mn 35s
Bit rate mode : Constant
Bit rate : 128 Kbps
Channel(s) : 2 channels
Sampling rate : 44.1 KHz
Resolution : 16 bits
Stream size : 3.28 MiB (100%)

Complete name : Воистину воскрес Женя Поддубная.mp3
Format : MPEG Audio
File size : 2.72 MiB
Duration : 1mn 29s
Overall bit rate : 256 Kbps
Genre : Blues
Recorded date : 2013-2013-19 :
Engineer : Microsoft gdhh
Audio
Format : MPEG Audio
Format version : Version 1
Format profile : Layer 3
Duration : 1mn 29s
Bit rate mode : Constant
Bit rate : 256 Kbps
Channel(s) : 2 channels
Sampling rate : 44.1 KHz
Resolution : 16 bits
Stream size : 2.72 MiB (100%)

Complete name : Выйди-выйди, солнышко.mp3
Format : MPEG Audio
File size : 2.24 MiB
Duration : 58s 697ms
Overall bit rate : 320 Kbps
Track name/Position : 10
Writing library : LAME3.96.1
Audio
Format : MPEG Audio
Format version : Version 1
Format profile : Layer 3
Duration : 58s 697ms
Bit rate mode : Constant
Bit rate : 320 Kbps
Channel(s) : 2 channels
Sampling rate : 44.1 KHz
Resolution : 16 bits
Stream size : 2.24 MiB (100%)
Writing library : LAME3.96.1

Complete name : Звонят-звонят колокола.mp3
Format : MPEG Audio
File size : 3.64 MiB
Duration : 1mn 35s
Overall bit rate : 320 Kbps
Track name/Position : 20
Writing library : LAME3.96.1
Audio
Format : MPEG Audio
Format version : Version 1
Format profile : Layer 3
Duration : 1mn 35s
Bit rate mode : Constant
Bit rate : 320 Kbps
Channel(s) : 2 channels
Sampling rate : 44.1 KHz
Resolution : 16 bits
Stream size : 3.64 MiB (100%)
Writing library : LAME3.96.1

Complete name : Кап-кап-кап.mp3
Format : MPEG Audio
File size : 4.91 MiB
Duration : 2mn 8s
Overall bit rate : 320 Kbps
Track name/Position : 6
Writing library : LAME3.96.1
Audio
Format : MPEG Audio
Format version : Version 1
Format profile : Layer 3
Duration : 2mn 8s
Bit rate mode : Constant
Bit rate : 320 Kbps
Channel(s) : 2 channels
Sampling rate : 44.1 KHz
Resolution : 16 bits
Stream size : 4.91 MiB (100%)
Writing library : LAME3.96.1

Complete name : Ласточки Ершовы.mp3
Format : MPEG Audio
File size : 6.55 MiB
Duration : 2mn 51s
Overall bit rate : 320 Kbps
Album : Звучите, песни, до небес! Христос воскрес!
Track name : Ласточки (Сергей и Людмила Ершовы)
Writing library : LAME3.96.1
Audio
Format : MPEG Audio
Format version : Version 1
Format profile : Layer 3
Duration : 2mn 51s
Bit rate mode : Constant
Bit rate : 320 Kbps
Channel(s) : 2 channels
Sampling rate : 44.1 KHz
Resolution : 16 bits
Stream size : 6.54 MiB (100%)
Writing library : LAME3.96.1

Complete name : Пасха в гости к нам пришла.mp3
Format : MPEG Audio
File size : 1.86 MiB
Duration : 2mn 1s
Overall bit rate : 128 Kbps
Album : Звучите, песни, до небес! Христос воскрес!
Track name : Пасха в гости к нам пришла (муз. С. Крупа-Шушариной, И. Яворовской, сл. К. Фофанова) запись из зала
Audio
Format : MPEG Audio
Format version : Version 1
Format profile : Layer 3
Duration : 2mn 1s
Bit rate mode : Constant
Bit rate : 128 Kbps
Channel(s) : 2 channels
Sampling rate : 44.1 KHz
Resolution : 16 bits
Stream size : 1.86 MiB (100%)

Complete name : Пасха Ершовы.mp3
Format : MPEG Audio
File size : 4.10 MiB
Duration : 1mn 47s
Overall bit rate : 320 Kbps
Album : Звучите, песни, до небес! Христос воскрес!
Track name : Пасха (Сергей и Людмила Ершовы)
Writing library : LAME3.96.1
Audio
Format : MPEG Audio
Format version : Version 1
Format profile : Layer 3
Duration : 1mn 47s
Bit rate mode : Constant
Bit rate : 320 Kbps
Channel(s) : 2 channels
Sampling rate : 44.1 KHz
Resolution : 16 bits
Stream size : 4.10 MiB (100%)
Writing library : LAME3.96.1

Complete name : Пасха Ирина Болдышева.mp3
Format : MPEG Audio
File size : 2.18 MiB
Duration : 57s 51ms
Overall bit rate : 320 Kbps
Album : Звучите, песни, до небес! Христос воскрес!
Track name : Пасха (Ирина Болдышева)
Writing library : LAME3.98r
Audio
Format : MPEG Audio
Format version : Version 1
Format profile : Layer 3
Duration : 57s 50ms
Bit rate mode : Constant
Bit rate : 320 Kbps
Channel(s) : 2 channels
Sampling rate : 44.1 KHz
Resolution : 16 bits
Stream size : 2.18 MiB (100%)
Writing library : LAME3.98r
Encoding settings : -m j -V 4 -q 3 -lowpass 20.5

Complete name : Пасхальное утро.mp3
Format : MPEG Audio
File size : 4.92 MiB
Duration : 2mn 8s
Overall bit rate : 320 Kbps
Album : Звучите, песни, до небес! Христос воскрес!
Track name : Пасхальное утро (Дарья Алексеевская)
Audio
Format : MPEG Audio
Format version : Version 1
Format profile : Layer 3
Duration : 2mn 8s
Bit rate mode : Constant
Bit rate : 320 Kbps
Channel(s) : 2 channels
Sampling rate : 44.1 KHz
Resolution : 16 bits
Stream size : 4.92 MiB (100%)

Complete name : Пасхальное яичко Надежда Тананко.mp3
Format : MPEG Audio
File size : 4.36 MiB
Duration : 1mn 54s
Overall bit rate : 320 Kbps
Album : Звучите, песни, до небес! Христос воскрес!
Track name : Пасхальное яичко (Надежда Тананко)
Audio
Format : MPEG Audio
Format version : Version 1
Format profile : Layer 3
Duration : 1mn 54s
Bit rate mode : Constant
Bit rate : 320 Kbps
Channel(s) : 2 channels
Sampling rate : 44.1 KHz
Resolution : 16 bits
Stream size : 4.36 MiB (100%)

Complete name : Пасхальное.mp3
Format : MPEG Audio
File size : 1.89 MiB
Duration : 2mn 3s
Overall bit rate : 128 Kbps
Album : Письмо другу
Track name : Пасхальное
Performer : Юлия Берёзова
Recorded date : 2002
Comment : 01.01.07
Audio
Format : MPEG Audio
Format version : Version 1
Format profile : Layer 3
Duration : 2mn 3s
Bit rate mode : Constant
Bit rate : 128 Kbps
Channel(s) : 2 channels
Sampling rate : 44.1 KHz
Resolution : 16 bits
Stream size : 1.89 MiB (100%)

Complete name : Пришла весна хор.mp3
Format : MPEG Audio
File size : 2.07 MiB
Duration : 2mn 15s
Overall bit rate : 128 Kbps
Album : Unknown
Track name : Track09
Performer : Unknown
Recorded date : Unkn
Audio
Format : MPEG Audio
Format version : Version 1
Format profile : Layer 3
Duration : 2mn 15s
Bit rate mode : Constant
Bit rate : 128 Kbps
Channel(s) : 2 channels
Sampling rate : 44.1 KHz
Resolution : 16 bits
Stream size : 2.07 MiB (100%)

Complete name : Приют Отрада Пасхальная песня.mp3
Format : MPEG Audio
File size : 4.18 MiB
Duration : 3mn 2s
Overall bit rate : 192 Kbps
Album : Неизвестный диск (30.06.2007 14:27:14)
Track name : Дорожка 20
Track name/Position : 20
Performer : Неизвестный исполнитель
Genre : Неизвестный
MCDI : Yes
Audio
Format : MPEG Audio
Format version : Version 1
Format profile : Layer 3
Duration : 3mn 2s
Bit rate mode : Constant
Bit rate : 192 Kbps
Channel(s) : 2 channels
Sampling rate : 44.1 KHz
Resolution : 16 bits
Stream size : 4.18 MiB (100%)

Complete name : Пусть солнце лучиком Пасхальным.wma
Format : Windows Media
File size : 7.91 MiB
Duration : 1mn 21s
Overall bit rate mode : Variable
Overall bit rate : 809 Kbps
Maximum Overall bit rate : 835 Kbps
Album : Люблю тебя Задонская обитель
Track name : Пусть солнце лучиком Пасхальным
Track name/Position : 17
Performer : к 225-летию со дня преставления святителя Тихона Задонского / Юлия Юрик
Genre : духовные песнопения
Encoded date : UTC 2078-11-01 17:33:52 / UTC 2010-10-11 05:45:29.816
PeakValue : 31649
AverageLevel : 3707
MediaFoundationVersion : 2.112
Audio #1
ID : 1
Format : WMA Lossless
Format profile : N1
Codec ID : 163
Codec ID/Info : Windows Media Audio 3
Description of the codec : Windows Media Audio 9.2 Lossless - VBR Quality 100, 44 kHz, 2 channel 16 bit 1-pass VBR
Duration : 1mn 21s
Bit rate mode : Variable
Bit rate : 810 Kbps
Channel(s) : 2 channels
Sampling rate : 44.1 KHz
Resolution : 16 bits
Stream size : 7.91 MiB
Language : English (US)

Complete name : Радуйтесь Христос воскрес Сербская песня.mp3
Format : MPEG Audio
File size : 3.53 MiB
Duration : 3mn 51s
Overall bit rate : 128 Kbps
Track name : Радуйтесь ХРИСТОС ВОСКРЕСЕ ! Сербская песня HD
Track name/Position : 1
Recorded date : 2014
Writing library : LAME3.99r
Comment : www.dvdvideosoft.com
Audio
Format : MPEG Audio
Format version : Version 1
Format profile : Layer 3
Duration : 3mn 51s
Bit rate mode : Constant
Bit rate : 128 Kbps
Channel(s) : 2 channels
Sampling rate : 44.1 KHz
Resolution : 16 bits
Stream size : 3.53 MiB (100%)
Writing library : LAME3.99r
Encoding settings : -m j -V 4 -q 3 -lowpass 17 -b 128

Complete name : С крыши - капели.mp3
Format : MPEG Audio
File size : 2.19 MiB
Duration : 57s 338ms
Overall bit rate : 320 Kbps
Track name/Position : 1
Writing library : LAME3.96.1
Audio
Format : MPEG Audio
Format version : Version 1
Format profile : Layer 3
Duration : 57s 338ms
Bit rate mode : Constant
Bit rate : 320 Kbps
Channel(s) : 2 channels
Sampling rate : 44.1 KHz
Resolution : 16 bits
Stream size : 2.19 MiB (100%)
Writing library : LAME3.96.1

Complete name : Семь ступенек поста.mp3
Format : MPEG Audio
File size : 1.04 MiB
Duration : 27s 324ms
Overall bit rate : 320 Kbps
Track name/Position : 4
Writing library : LAME3.96
Audio
Format : MPEG Audio
Format version : Version 1
Format profile : Layer 3
Duration : 27s 323ms
Bit rate mode : Constant
Bit rate : 320 Kbps
Channel(s) : 2 channels
Sampling rate : 44.1 KHz
Resolution : 16 bits
Stream size : 1.04 MiB (100%)
Writing library : LAME3.96

Complete name : Серый ослик пасхальная.mp3
Format : MPEG Audio
File size : 1.86 MiB
Duration : 2mn 1s
Overall bit rate : 128 Kbps
Audio
Format : MPEG Audio
Format version : Version 1
Format profile : Layer 3
Duration : 2mn 1s
Bit rate mode : Constant
Bit rate : 128 Kbps
Channel(s) : 2 channels
Sampling rate : 44.1 KHz
Resolution : 16 bits
Stream size : 1.86 MiB (100%)

Complete name : Христос Воскрес Ершовы.mp3
Format : MPEG Audio
File size : 5.72 MiB
Duration : 2mn 29s
Overall bit rate : 320 Kbps
Track name/Position : 19
Writing library : LAME3.96
Audio
Format : MPEG Audio
Format version : Version 1
Format profile : Layer 3
Duration : 2mn 29s
Bit rate mode : Constant
Bit rate : 320 Kbps
Channel(s) : 2 channels
Sampling rate : 44.1 KHz
Resolution : 16 bits
Stream size : 5.72 MiB (100%)
Writing library : LAME3.96

Complete name : Христос воскрес иерей Тремаскин Евгений.mp3
Format : MPEG Audio
File size : 3.75 MiB
Duration : 1mn 38s
Overall bit rate : 320 Kbps
Track name : Христос воскрес
Track name/Position : 18
Performer : иерей Тремаскин Евгений
Accompaniment : иерей Тремаскин Евгений
Writing library : LAME3.90 (alpha)ЄЄЄЄ
Comment : Коллекция www.predanie.ru
Audio
Format : MPEG Audio
Format version : Version 1
Format profile : Layer 3
Duration : 1mn 38s
Bit rate mode : Constant
Bit rate : 320 Kbps
Channel(s) : 2 channels
Sampling rate : 44.1 KHz
Resolution : 16 bits
Stream size : 3.75 MiB (100%)
Writing library : LAME3.90 (alpha)ЄЄЄЄ

Complete name : Христос воскрес песня.mp3
Format : MPEG Audio
File size : 9.25 MiB
Duration : 4mn 2s
Overall bit rate : 320 Kbps
Album : Лучи Рассвета - Диск 04
Track name : 02. Христос воскрес (пасхальная)
Track name/Position : 02
Performer : Снежинка
Genre : Other
Recorded date : 2004
MCDI : Yes
Audio
Format : MPEG Audio
Format version : Version 1
Format profile : Layer 3
Duration : 4mn 2s
Bit rate mode : Constant
Bit rate : 320 Kbps
Channel(s) : 2 channels
Sampling rate : 44.1 KHz
Resolution : 16 bits
Stream size : 9.25 MiB (100%)

Complete name : Христос воскресе Ансамбль Петропавловская песня.mp3
Format : MPEG Audio
File size : 3.91 MiB
Duration : 3mn 24s
Overall bit rate : 160 Kbps
Audio
Format : MPEG Audio
Format version : Version 1
Format profile : Layer 3
Duration : 3mn 24s
Bit rate mode : Constant
Bit rate : 160 Kbps
Channel(s) : 2 channels
Sampling rate : 44.1 KHz
Resolution : 16 bits
Stream size : 3.91 MiB (100%)

Complete name : Христос воскресе Надежда Тананко.mp3
Format : MPEG Audio
File size : 6.14 MiB
Duration : 2mn 41s
Overall bit rate : 320 Kbps
Audio
Format : MPEG Audio
Format version : Version 1
Format profile : Layer 3
Duration : 2mn 41s
Bit rate mode : Constant
Bit rate : 320 Kbps
Channel(s) : 2 channels
Sampling rate : 44.1 KHz
Resolution : 16 bits
Stream size : 6.14 MiB (100%)

Complete name : Христос воскресе православная песня.mp3
Format : MPEG Audio
File size : 3.32 MiB
Duration : 3mn 37s
Overall bit rate : 128 Kbps
Album : Неизвестный диск (18.03.2010 12:01:53)
Track name : Дорожка 1
Track name/Position : 01
Writing library : LAME3.98r
Audio
Format : MPEG Audio
Format version : Version 1
Format profile : Layer 3
Duration : 3mn 37s
Bit rate mode : Constant
Bit rate : 128 Kbps
Channel(s) : 2 channels
Sampling rate : 44.1 KHz
Resolution : 16 bits
Stream size : 3.32 MiB (100%)
Writing library : LAME3.98r
Encoding settings : -m j -V 4 -q 5 -lowpass 17 -b 128

Complete name : Юлия Славянская Пасха.mp3
Format : MPEG Audio
File size : 6.05 MiB
Duration : 3mn 16s
Overall bit rate : 258 Kbps
Writing library : LAME3.99r
Audio
Format : MPEG Audio
Format version : Version 1
Format profile : Layer 3
Duration : 3mn 16s
Bit rate mode : Variable
Bit rate : 258 Kbps
Minimum bit rate : 32.0 Kbps
Channel(s) : 2 channels
Sampling rate : 44.1 KHz
Resolution : 16 bits
Stream size : 6.05 MiB (100%)
Writing library : LAME3.99r
Encoding settings : -m j -V 0 -q 0 -lowpass 22.1 --vbr-new -b 32

Complete name : Юлия Славянская Я во храме пустом.mp3
Format : MPEG Audio
File size : 4.11 MiB
Duration : 4mn 29s
Overall bit rate : 128 Kbps
Track name : Track 07
Track name/Position : 7
Audio
Format : MPEG Audio
Format version : Version 1
Format profile : Layer 3
Duration : 4mn 29s
Bit rate mode : Constant
Bit rate : 128 Kbps
Channel(s) : 2 channels
Sampling rate : 44.1 KHz
Resolution : 16 bits
Stream size : 4.11 MiB (100%)

Complete name : Юлия Юрик Купола золотые украсили.mp3
Format : MPEG Audio
File size : 4.20 MiB
Duration : 2mn 17s
Overall bit rate : 256 Kbps
Album : Не жду награды от людей
Performer : Юрик Юлия
Accompaniment : Юрик Юлия
Genre : духовные песнопения
Writing library : LAME3.92
Cover : Yes
Cover type : Cover (front)
Cover MIME : image/jpeg
Comment : Юрик Юлия - Не жду награды от людей
Audio
Format : MPEG Audio
Format version : Version 1
Format profile : Layer 3
Duration : 2mn 17s
Bit rate mode : Constant
Bit rate : 256 Kbps
Channel(s) : 2 channels
Sampling rate : 44.1 KHz
Resolution : 16 bits
Stream size : 4.18 MiB (100%)
Writing library : LAME3.92

Complete name : Пасху радостно встречаем.mp3
Format : MPEG Audio
File size : 2.54 MiB
Duration : 1mn 6s
Overall bit rate : 320 Kbps
Audio
Format : MPEG Audio
Format version : Version 1
Format profile : Layer 3
Duration : 1mn 6s
Bit rate mode : Constant
Bit rate : 320 Kbps
Channel(s) : 2 channels
Sampling rate : 44.1 KHz
Resolution : 16 bits
Stream size : 2.54 MiB (100%)

Complete name : Пасхальная.mp3
Format : MPEG Audio
File size : 3.03 MiB
Duration : 1mn 19s
Overall bit rate : 320 Kbps
Album : Звучите, песни, до небес! Христос воскрес!
Track name : Пасхальная (Дарья Алексеевская)
Audio
Format : MPEG Audio
Format version : Version 1
Format profile : Layer 3
Duration : 1mn 19s
Bit rate mode : Constant
Bit rate : 320 Kbps
Channel(s) : 2 channels
Sampling rate : 44.1 KHz
Resolution : 16 bits
Stream size : 3.03 MiB (100%)

Complete name : Из года в год (пасхальная).mp3
Format : MPEG Audio
File size : 2.55 MiB
Duration : 1mn 51s
Overall bit rate : 192 Kbps
Album : Пасха 2006
Track name : Track 2
Track name/Position : 2
Performer : Unknown Artist
Genre : Other
Audio
Format : MPEG Audio
Format version : Version 1
Format profile : Layer 3
Duration : 1mn 51s
Bit rate mode : Constant
Bit rate : 192 Kbps
Channel(s) : 2 channels
Sampling rate : 44.1 KHz
Resolution : 16 bits
Stream size : 2.54 MiB (100%)

Complete name : Я во храме пустом (быстрее).mp3
Format : MPEG Audio
File size : 1.86 MiB
Duration : 2mn 1s
Overall bit rate : 128 Kbps
Track name : Track 07
Track name/Position : 7
Audio
Format : MPEG Audio
Format version : Version 1
Format profile : Layer 3
Duration : 2mn 1s
Bit rate mode : Constant
Bit rate : 128 Kbps
Channel(s) : 2 channels
Sampling rate : 44.1 KHz
Resolution : 16 bits
Stream size : 1.86 MiB (100%)

Complete name : Пасхальная песня с Кипра.mp3
Format : MPEG Audio
File size : 1.99 MiB
Duration : 2mn 10s
Overall bit rate : 128 Kbps
Track name : radio
Performer : av
Genre : Other
Audio
Format : MPEG Audio
Format version : Version 1
Format profile : Layer 3
Duration : 2mn 10s
Bit rate mode : Constant
Bit rate : 128 Kbps
Channel(s) : 2 channels
Sampling rate : 44.1 KHz
Resolution : 16 bits
Stream size : 1.99 MiB (100%)

Complete name : В сердце радость но откуда (из сценки).mp3
Format : MPEG Audio
File size : 2.21 MiB
Duration : 2mn 24s
Overall bit rate : 128 Kbps
Genre : Blues
Audio
Format : MPEG Audio
Format version : Version 1
Format profile : Layer 3
Duration : 2mn 24s
Bit rate mode : Constant
Bit rate : 128 Kbps
Channel(s) : 2 channels
Sampling rate : 44.1 KHz
Resolution : 16 bits
Stream size : 2.21 MiB (100%)

Complete name : Люди ликуйте Дивна Любоевич.mp3
Format : MPEG Audio
File size : 5.63 MiB
Duration : 2mn 27s
Overall bit rate : 320 Kbps
Album : Христос Воскресе
Track name : Люди ликуйте
Track name/Position : 14
Performer : Хор ДИВНА Любоевич
Accompaniment : Хор ДИВНА Любоевич
Genre : Религиозные
MCDI : Yes
Audio
Format : MPEG Audio
Format version : Version 1
Format profile : Layer 3
Duration : 2mn 27s
Bit rate mode : Constant
Bit rate : 320 Kbps
Channel(s) : 2 channels
Sampling rate : 44.1 KHz
Resolution : 16 bits
Stream size : 5.62 MiB (100%)

Complete name : Белорусская пасхальная песня Анна Абикулова.mp3
Format : MPEG Audio
File size : 6.00 MiB
Duration : 2mn 37s
Overall bit rate : 320 Kbps
Album : Надежда
Track name : Track07
Track name/Position : 7
Performer : Анна Абикулова
Genre : Other
Audio
Format : MPEG Audio
Format version : Version 1
Format profile : Layer 3
Duration : 2mn 37s
Bit rate mode : Constant
Bit rate : 320 Kbps
Channel(s) : 2 channels
Sampling rate : 44.1 KHz
Resolution : 16 bits
Stream size : 6.00 MiB (100%)

Complete name : Я во храме пустом Юлия Славянская короткая.mp3
Format : MPEG Audio
File size : 2.44 MiB
Duration : 2mn 39s
Overall bit rate : 128 Kbps
Track name : Track 07
Track name/Position : 7
Audio
Format : MPEG Audio
Format version : Version 1
Format profile : Layer 3
Duration : 2mn 39s
Bit rate mode : Constant
Bit rate : 128 Kbps
Channel(s) : 2 channels
Sampling rate : 44.1 KHz
Resolution : 16 bits
Stream size : 2.44 MiB (100%)

Complete name : Кружится над землей Пасхальная песня.mp3
Format : MPEG Audio
File size : 2.82 MiB
Duration : 3mn 4s
Overall bit rate : 128 Kbps
Album : fleita.com
Performer : fleita.com?
Genre : Other
Writing library : LAME3.82
Comment : www.fleita.com
Audio
Format : MPEG Audio
Format version : Version 1
Format profile : Layer 3
Duration : 3mn 4s
Bit rate mode : Constant
Bit rate : 128 Kbps
Channel(s) : 2 channels
Sampling rate : 44.1 KHz
Resolution : 16 bits
Stream size : 2.82 MiB (100%)
Writing library : LAME3.82

Complete name : Вы слышали как утром пели птицы (голосом).mp3
Format : MPEG Audio
File size : 3.71 MiB
Duration : 4mn 2s
Overall bit rate : 128 Kbps
Album : Неизвестный диск (14.12.2009 16:40:24)
Track name : Дорожка 12
Track name/Position : 12
Performer : Неизвестный исполнитель
Genre : Неизвестный жанр
MCDI : Yes
Audio
Format : MPEG Audio
Format version : Version 1
Format profile : Layer 3
Duration : 4mn 2s
Bit rate mode : Constant
Bit rate : 128 Kbps
Channel(s) : 2 channels
Sampling rate : 44.1 KHz
Resolution : 16 bits
Stream size : 3.70 MiB (100%)

Complete name : Солнца лучики с небес (со словами).mp3
Format : MPEG Audio
File size : 4.43 MiB
Duration : 4mn 50s
Overall bit rate : 128 Kbps
Album : http://vkmonline.com
Track name : Пасхальная песня - Ю. Федотов
Writing library : LAME3.97
Comment : http://vkmonline.com
Audio
Format : MPEG Audio
Format version : Version 1
Format profile : Layer 3
Duration : 4mn 50s
Bit rate mode : Constant
Bit rate : 128 Kbps
Channel(s) : 2 channels
Sampling rate : 44.1 KHz
Resolution : 16 bits
Stream size : 4.43 MiB (100%)
Writing library : LAME3.97

Complete name : Пасхальная сербская песня – Христос воскресе на русском.mp3
Format : MPEG Audio
File size : 4.55 MiB
Duration : 4mn 58s
Overall bit rate : 128 Kbps
Album : Album
Track name : The Title
Performer : The Author
Recorded date : 2935
Comment : Comment
Audio
Format : MPEG Audio
Format version : Version 1
Format profile : Layer 3
Duration : 4mn 58s
Bit rate mode : Constant
Bit rate : 128 Kbps
Channel(s) : 2 channels
Sampling rate : 32.0 KHz
Resolution : 16 bits
Stream size : 4.55 MiB (100%)
Download

Войдите на сайт, чтобы увидеть полную информацию.

Как скачивать  ·   Правила трекера



Последний раз редактировалось: Татьяна хв (2016-10-10 15:23), всего редактировалось 9 раз(а)
[Профиль]  [ЛС] 

stepan-frunze

Стаж: 8 лет 7 месяцев

Сообщений: 2564

Russia

post 18-Мар-2015 14:36 (спустя 2 часа 35 минут)

[Цитировать] 

Спасибо!
[Профиль]  [ЛС] 

AlexMi2010

Стаж: 7 лет 1 месяц

Сообщений: 7

Russia

post 20-Мар-2015 17:00 (спустя 2 дня 2 часа)

[Цитировать] 

Благодарю!
[Профиль]  [ЛС] 

arch_Elijah

Стаж: 5 лет

Сообщений: 172

Откуда: KIEV

Ukraine

post 21-Мар-2015 13:53 (спустя 20 часов)

[Цитировать] 

Отлично... для воскресной школы в самый раз...

_________________
орешек знаний твёрд...
[Профиль]  [ЛС] 

uk9cbd

Стаж: 3 года 7 месяцев

Сообщений: 87

Russia

post 26-Ноя-2015 14:46 (спустя 8 месяцев)

[Цитировать] 

Спасибо огромное!

_________________
Мир всем...
[Профиль]  [ЛС] 

Стаж: 47 лет

post 05-Апр-2016 15:17 (спустя 4 месяца 9 дней)

[Цитировать] 

Извините за то, что вмешиваюсь… Но мне очень близка эта тема. Готов помочь.
[Профиль]  [ЛС] 

Стаж: 47 лет

post 06-Апр-2016 16:53 (спустя 1 день 1 час)

[Цитировать] 

качество неочень и смотреть нет времени!!!

_________________
смотреть зверополис
[Профиль]  [ЛС] 

zvezdohka

Стаж: 10 месяцев

Сообщений: 15

Russia

post 25-Ноя-2016 14:27 (спустя 7 месяцев)

[Цитировать] 

Спаси Бог!

_________________
можно все.но не сразу.или сразу.но не все.
[Профиль]  [ЛС] 
Показать сообщения:    
Ответить на тему

Текущее время: 17-Окт 15:40

Часовой пояс: GMT + 4



Вы не можете начинать темы
Вы не можете отвечать на сообщения
Вы не можете редактировать свои сообщения
Вы не можете удалять свои сообщения
Вы не можете голосовать в опросах
Вы не можете прикреплять файлы к сообщениям
Вы не можете скачивать файлы