Loading...
Error

Ангел вопияше... Православные песнопения [Лучшие хоры Московских монастырей , 2004 год , FLAC (image + .cue), lossless]

Ответить на тему
Статистика раздачи
Скачали: [ 24 ]
   
 
Автор Сообщение

andrejpushkaryov

Модератор

Стаж: 7 лет 10 месяцев

Сообщений: 999

Откуда: Ижевск

Russia

post 23-Дек-2009 10:48

[Цитировать] 

Ангел вопияше...
Православные песнопения

pic
Страна: Россия
Жанр: Церковные хоры
Год выпуска: 2004
Формат: FLAC (image + .cue)
Битрейт аудио: lossless
Продолжительность: 74 минуты
Трэклист:
Ангел Вопияше:
(Православные песнопения Анатолия Киселёва)
1. Ангел вопияше (задостойник Пасхи, припев 9-й песни канона) 2:44
2. Приидите Поклонимся (Утренняя молитва на входе перед Литургией) 2:35
3. Иже Херувимы (Херувимская песнь) 5:42
4. Княжения твоего... (Тропарь св. блг. кн. Даниилу Московскому) 3:32
5. Избранный чудотворче... (Кондак св. блг. кн. Даниилу Московскому) 2:14
6. Милость мира (Песнопения из Евхаристического канона) 2:30
7. В Мирех святе... (Кондак свт Николаю Чудотворцу) 3:07
8. Отче наш ( Молитва Господня) 4:26
Песнопения Всенощного Бдения (2003):
9. Приидите поклонимся ( На вечерне) 2:19
10. Благослови, душе моя, Господа (Из 103 псалма на вечерне) 5:10
11. Блажен муж (Из 1 псалма) 5:13
12. Свете тихий (Вечерня песнь Сыну Божию) 3:38
13. Ныне отпущаеши (Молитва св. Симеона Богоприимца) 4:00
14. Богородице Дево, радуйся (Песнь прев.Богородице) 2:14
15. Хвалите имя Господне (Полиелей) 3:01
16. Благословен еси Господи. Ангельский собор (Воскресные тропари) 6:06
17. От юности моея 3:34
18. Воскресение Христово ( Воскресная песнь по Евангелии) 2:46
19. Величит душа моя Господа (Песнь прев. Богородицы) 6:52
20. Взбранной Воеводе (Кондак ко прев. Богородице) 1:53
Исполнители: Мужской хор "Академии хорового искусства" п/у нар. арт. СССР Виктора Попова, солист Дмитрий Корчак (1), мужской хор Московского подворья Свято-Троицкой Сергиевой Лавры п/у Владимира Горбика (2), Праздничный мужской хор Данилова монастыря п/у Георгия Сафонова (3-5), мужской квартет Сретенского монастыря "Res Facto" (6), Государственный академический московский хор п/у нар. арт. России Андрея Кожевникова (7-12,14-20), солисты Лилия Макаренко (14,19) и Рубен Степанян (11). Хор Белорусского радио п/у нар. арт. СССР Виктора Ровдо (13).
Обложка
pic
EAC log
Exact Audio Copy V0.99 prebeta 5 from 4. May 2009

Отчёт EAC об извлечении, выполненном 23. декабря 2009, 10:24

Unknown Artist / Unknown Title

Дисковод: _NEC DVD_RW ND-4570A Adapter: 0 ID: 1

Режим чтения : Достоверность
Использование точного потока : Да
Отключение кэша аудио : Да
Использование указателей C2 : Нет

Коррекция смещения при чтении : 48
Способность читать области Lead-in и Lead-out : Нет
Заполнение пропущенных сэмплов тишиной : Да
Удаление блоков с тишиной в начале и конце : Нет
При вычислениях CRC использовались нулевые сэмплы : Да
Интерфейс : Установленный внешний ASPI-интерфейс

Выходной формат : Пользовательский кодировщик
Выбранный битрейт : 768 kBit/s
Качество : Высокий
Добавление ID3-тэга : Да
Утилита сжатия : C:\Program Files\Exact Audio Copy\Flac\flac.exe
Дополнительные параметры : -6 -V -T "ARTIST=%a" -T "TITLE=%t" -T "ALBUM=%g" -T "DATE=%y" -T "TRACKNUMBER=%n" -T "GENRE=%m" -T "COMMENT=%e" %s -o %d

TOC извлечённого CD

Трек | Старт | Длительность | Начальный сектор | Конечный сектор
---------------------------------------------------------------------
1 | 0:00.00 | 2:46.08 | 0 | 12457
2 | 2:46.08 | 2:37.04 | 12458 | 24236
3 | 5:23.12 | 5:44.07 | 24237 | 50043
4 | 11:07.19 | 3:34.07 | 50044 | 66100
5 | 14:41.26 | 2:16.11 | 66101 | 76311
6 | 16:57.37 | 2:32.24 | 76312 | 87735
7 | 19:29.61 | 3:09.65 | 87736 | 101975
8 | 22:39.51 | 4:28.21 | 101976 | 122096
9 | 27:07.72 | 2:21.01 | 122097 | 132672
10 | 29:28.73 | 5:12.02 | 132673 | 156074
11 | 34:41.00 | 5:15.23 | 156075 | 179722
12 | 39:56.23 | 3:40.43 | 179723 | 196265
13 | 43:36.66 | 4:02.35 | 196266 | 214450
14 | 47:39.26 | 2:16.34 | 214451 | 224684
15 | 49:55.60 | 3:03.63 | 224685 | 238472
16 | 52:59.48 | 6:08.38 | 238473 | 266110
17 | 59:08.11 | 3:36.27 | 266111 | 282337
18 | 62:44.38 | 2:48.04 | 282338 | 294941
19 | 65:32.42 | 6:54.11 | 294942 | 326002
20 | 72:26.53 | 1:53.11 | 326003 | 334488

Характеристики диапазона извлечения и сообщения об ошибках

Выбранный диапазон

Имя файла F:\Ангел вопияше\Unknown Artist - Unknown Title.wav

Пиковый уровень 100.0 %
Качество диапазона 100.0 %
CRC копии E8E0D1F0
Копирование... OK

Ошибок не произошло

AccurateRip: сводка
Трек 1 нет в базе данных
Трек 2 нет в базе данных
Трек 3 нет в базе данных
Трек 4 нет в базе данных
Трек 5 нет в базе данных
Трек 6 нет в базе данных
Трек 7 нет в базе данных
Трек 8 нет в базе данных
Трек 9 нет в базе данных
Трек 10 нет в базе данных
Трек 11 нет в базе данных
Трек 12 нет в базе данных
Трек 13 нет в базе данных
Трек 14 нет в базе данных
Трек 15 нет в базе данных
Трек 16 нет в базе данных
Трек 17 нет в базе данных
Трек 18 нет в базе данных
Трек 19 нет в базе данных
Трек 20 нет в базе данных
Ни одного трека нет в базе AccurateRip

Конец отчёта
Download

Войдите для скачивания торрент-файла

Как скачивать  ·   Правила трекера



Последний раз редактировалось: andrejpushkaryov (2016-05-29 22:03), всего редактировалось 1 раз
[Профиль]  [ЛС] 

brd_eugene

Стаж: 8 лет 2 месяца

Сообщений: 64

Ukraine

post 12-Янв-2010 01:41 (спустя 19 дней)

[Цитировать] 

СПАСИБО!
[Профиль]  [ЛС] 

valina

Стаж: 7 лет 3 месяца

Сообщений: 97

post 22-Апр-2011 11:13 (спустя 1 год 3 месяца)

[Цитировать] 

Спасибо
[Профиль]  [ЛС] 

rOman199

Стаж: 8 лет

Сообщений: 296

Russia

post 22-Апр-2011 15:41 (спустя 4 часа)

[Цитировать] 

Спаси Господи!!!С Наступаюшим Праздником Праздников!!!
[Профиль]  [ЛС] 

zaalex

Стаж: 3 года 4 месяца

Сообщений: 1

Ukraine

post 25-Сен-2013 20:51 (спустя 2 года 5 месяцев)

[Цитировать] 

Спаси, Господи!
[Профиль]  [ЛС] 

Darya_flower

Стаж: 3 года 3 месяца

Сообщений: 1

Russia

post 10-Ноя-2013 23:18 (спустя 1 месяц 15 дней)

[Цитировать] 

Спасибо!
[Профиль]  [ЛС] 

Tgloria2015

Стаж: 1 год 11 месяцев

Сообщений: 4

Ukraine

post 08-Мар-2015 18:22 (спустя 1 год 3 месяца)

[Цитировать] 

Спасибо!

_________________
Бог создал нас для других.
[Профиль]  [ЛС] 

nemirix

Стаж: 2 года 1 месяц

Сообщений: 2

post 11-Апр-2016 00:53 (спустя 1 год 1 месяц)

[Цитировать] 

Спасибо, но разве это лучшие хора?
[Профиль]  [ЛС] 
Показать сообщения:    
Ответить на тему

Текущее время: 23-Фев 04:19

Часовой пояс: GMT + 4



Вы не можете начинать темы
Вы не можете отвечать на сообщения
Вы не можете редактировать свои сообщения
Вы не можете удалять свои сообщения
Вы не можете голосовать в опросах
Вы не можете прикреплять файлы к сообщениям
Вы не можете скачивать файлы