Loading...
Error

(Церковная музыка и церковные хоры (lossless).) "Да Воскреснет Бог". (Пасхальные песнопения). - 2010, APE (image + .cue), lossless

Ответить на тему
Статистика раздачи
Скачали: [ 8 ]
   
 
Автор Сообщение

СЕРГУЛЕТ

Стаж: 8 лет

Сообщений: 2639

Откуда: LA ROMANA

Dominicanrep

post 18-Апр-2010 19:21

[Цитировать] 

"Да Воскреснет Бог". (Пасхальные песнопения).

pic
Страна: Россия. Московское Подворье Свято-Троицкой Сергиевой Лавры.
Жанр: Церковная музыка и церковные хоры (lossless).
Год выпуска: 2010
Формат: APE (image + .cue)
Битрейт аудио: lossless
Продолжительность: 00:47:49
Обложки диска+Содержание
picpic
EAC log
Exact Audio Copy V0.99 prebeta 5 from 4. May 2009

Отчёт EAC об извлечении, выполненном 18. апреля 2010, 15:27

Хор МПТСЛ / Да Воскреснет Бог

Дисковод: ASUS DRW-2014L1T Adapter: 0 ID: 1

Режим чтения : Достоверность
Использование точного потока : Да
Отключение кэша аудио : Да
Использование указателей C2 : Нет

Коррекция смещения при чтении : 6
Способность читать области Lead-in и Lead-out : Нет
Заполнение пропущенных сэмплов тишиной : Да
Удаление блоков с тишиной в начале и конце : Нет
При вычислениях CRC использовались нулевые сэмплы : Да
Интерфейс : Встроенный Win32-интерфейс для Win NT/2000

Выходной формат : Внутренние WAV-операции
Формат сэмплов : 44.100 Гц; 16 бит; стерео

TOC извлечённого CD

Трек | Старт | Длительность | Начальный сектор | Конечный сектор
---------------------------------------------------------------------
1 | 0:00.00 | 1:51.03 | 0 | 8327
2 | 1:51.03 | 5:30.06 | 8328 | 33083
3 | 7:21.09 | 1:55.68 | 33084 | 41776
4 | 9:17.02 | 2:19.01 | 41777 | 52202
5 | 11:36.03 | 7:47.68 | 52203 | 87295
6 | 19:23.71 | 5:19.18 | 87296 | 111238
7 | 24:43.14 | 2:52.72 | 111239 | 124210
8 | 27:36.11 | 2:02.10 | 124211 | 133370
9 | 29:38.21 | 2:59.70 | 133371 | 146865
10 | 32:38.16 | 6:41.05 | 146866 | 176945
11 | 39:19.21 | 2:22.18 | 176946 | 187613
12 | 41:41.39 | 6:07.64 | 187614 | 215202

Характеристики диапазона извлечения и сообщения об ошибках

Выбранный диапазон

Имя файла C:\Хор МПТСЛ - Да Воскреснет Бог.wav

Пиковый уровень 99.5 %
Качество диапазона 99.9 %
CRC копии B71DFCF1
Копирование... OK

Ошибок не произошло

Конец отчёта
Дополнительная информация: Мужской хор Московского Подворья Свято-Троицкой Сергиевой Лавры под управлением Владимира Горбика.
Концерт в Большом зале Консерватории им. П. И. Чайковского.
Download

Войдите для скачивания торрент-файла

Как скачивать  ·   Правила трекера

[Профиль]  [ЛС] 

Anatolem

Стаж: 7 лет 5 месяцев

Сообщений: 69

Откуда: Украина, г. Макеевка

Ussr

post 06-Май-2010 20:03 (спустя 18 дней)

[Цитировать] 

Спаси Вас Господи!

_________________
Слава Святей, и Единосущней, и Животворящей, и Нераздельней Троице всегда, ныне и присно, и во веки веков!
[Профиль]  [ЛС] 

voroncovo

post 18-Май-2010 01:13 (спустя 11 дней)

[Цитировать] 

Оч. люблю этот хор
Спасибо огромное!!!
 

Странник1

Стаж: 7 лет 2 месяца

Сообщений: 2308

Russia

post 18-Авг-2010 12:21 (спустя 3 месяца)

[Цитировать] 

Спасибо
[Профиль]  [ЛС] 

sergey2peh

post 06-Окт-2010 15:08 (спустя 1 месяц 19 дней)

[Цитировать] 

спаси Господи
 

sinner7

Стаж: 6 лет 8 месяцев

Сообщений: 242

post 13-Окт-2010 22:48 (спустя 7 дней)

[Цитировать] 

Спасибо!
[Профиль]  [ЛС] 

+Сергей+

Стаж: 6 лет 2 месяца

Сообщений: 225

Откуда: Москва

Russia

post 28-Дек-2010 19:42 (спустя 2 месяца 14 дней)

[Цитировать] 

Спасибо.
[Профиль]  [ЛС] 

Alex Sag

Стаж: 7 лет 9 месяцев

Сообщений: 270

Kazakhstan

post 08-Апр-2014 07:52 (спустя 3 года 3 месяца)

[Цитировать] 

Во Славу Божию!

_________________
Alexey
[Профиль]  [ЛС] 

ELENA N

Стаж: 2 года

Сообщений: 1

Russia

post 06-Мар-2015 20:37 (спустя 10 месяцев)

[Цитировать] 

Благодарю
[Профиль]  [ЛС] 

Anatolem

Стаж: 7 лет 5 месяцев

Сообщений: 69

Откуда: Украина, г. Макеевка

Ussr

post 20-Апр-2015 21:46 (спустя 1 месяц 14 дней)

[Цитировать] 

СЕРГУЛЕТ
Христос Воскресе! Спасибо за раздачу.

_________________
Слава Святей, и Единосущней, и Животворящей, и Нераздельней Троице всегда, ныне и присно, и во веки веков!
[Профиль]  [ЛС] 

саша3

Стаж: 1 год 10 месяцев

Сообщений: 13

post 02-Май-2015 14:44 (спустя 11 дней)

[Цитировать] 

Спасибо!
[Профиль]  [ЛС] 
Показать сообщения:    
Ответить на тему

Текущее время: 26-Фев 16:18

Часовой пояс: GMT + 4



Вы не можете начинать темы
Вы не можете отвечать на сообщения
Вы не можете редактировать свои сообщения
Вы не можете удалять свои сообщения
Вы не можете голосовать в опросах
Вы не можете прикреплять файлы к сообщениям
Вы не можете скачивать файлы