Loading...
Error

(Церковная музыка и церковные хоры (lossless).) Великий покаянный канон прп. Андрея Критского. Хор Свято-Троицкого Ионинского монастыря. - 2003, FLAC (track + .cue), lossless

Ответить на тему
Статистика раздачи
Скачали: [ 29 ]
   
 
Автор Сообщение

СЕРГУЛЕТ

Стаж: 7 лет 9 месяцев

Сообщений: 2639

Откуда: LA ROMANA

Dominicanrep

post 03-Дек-2009 15:24

[Цитировать] 

Великий покаянный канон прп. Андрея Критского. Хор Свято-Троицкого Ионинского монастыря.

pic
Страна: Украина.
Жанр: Церковная музыка и церковные хоры (lossless).
Формат: FLAC (track + .cue)
Битрейт аудио: lossless
Продолжительность: 00:58:18+00:57:40.
Трэклист:
CD 1.
01. Боже в помощь мою вонми. Пс. 69
02. Помощник и покровитель. Песнь 1
03. Вонми небо. Песнь 2
04. На недвижимом, Христе, камени. Песнь 3
05. Услыша пророк. Песнь 4
06. От нощи утренююща. Песнь 5
07. Возопих всем сердцем. Песнь 6

CD 2.
Трэклист:
01. Господи помилуй. Душе моя. Кондак
02. Согрешихом, беззаконновахом. Песнь 7
03. Егоже воинства. Песнь 8
04. Безсеменнаго зачатия. Песнь 9
05. Безсеменнаго зачатия. Катовасия
06. На реках вавилонских. Пс. 136
07. Покаяния отверзи ми двери
Дополнительная информация: Исполняется на распев с двумя ликами с канонархом
Киево-Печерский распев
Регенты: лик А - игумен Иларион (Парасунько), лик Б - диакон Дмитрий Болгарский
Канонархи: лик А - протодиакон Александр Плиска, лик Б - игумен Никита (Синенок)
EAC log
Exact Audio Copy V0.99 prebeta 4 from 23. January 2008

Отчёт EAC об извлечении, выполненном 3. сентября 2009, 10:04

Хор Свято-Троицкого Ионинского монастыря / Великий покаянный канон прп. Андрея Критского

Дисковод: HL-DT-STDVDRAM GH20NS10 Adapter: 2 ID: 2

Режим чтения : Достоверность
Использование точного потока : Да
Отключение кэша аудио : Да
Использование указателей C2 : Нет

Коррекция смещения при чтении : 667
Способность читать области Lead-in и Lead-out : Нет
Заполнение пропущенных сэмплов тишиной : Да
Удаление блоков с тишиной в начале и конце : Нет
При вычислениях CRC использовались нулевые сэмплы : Да
Интерфейс : Встроенный Win32-интерфейс для Win NT/2000
Обработка зазоров : Добавлено к предыдущему треку

Выходной формат : Пользовательский кодировщик
Выбранный битрейт : 1024 kBit/s
Качество : Высокий
Добавление ID3-тэга : Нет
Утилита сжатия : C:\Program Files\Exact Audio Copy\FLAC encoder\flac.exe
Дополнительные параметры : -6 -V -T "ARTIST=%a" -T "TITLE=%t" -T "ALBUM=%g" -T "DATE=%y" -T "TRACKNUMBER=%n" -T "GENRE=%m" -T "COMMENT=%e" %s -o %d

TOC извлечённого CD

Трек | Старт | Длительность | Начальный сектор | Конечный сектор
---------------------------------------------------------------------
1 | 0:00.00 | 1:03.53 | 0 | 4777
2 | 1:03.53 | 10:25.25 | 4778 | 51677
3 | 11:29.03 | 10:06.65 | 51678 | 97192
4 | 21:35.68 | 6:33.41 | 97193 | 126708
5 | 28:09.34 | 14:28.36 | 126709 | 191844
6 | 42:37.70 | 8:39.11 | 191845 | 230780
7 | 51:17.06 | 7:01.61 | 230781 | 262416

Трек 1

Имя файла D:\Torrents\Готовые закачки\Великий покаянный канон прп. Андрея Критского [Хор Свято-Троицкого Ионинского монастыря]\CD1\01 - Боже в помощь мою вонми. Пс. 69.wav

Длина предзазора 0:00:02.00

Пиковый уровень 19.1 %
Качество трека 100.0 %
CRC теста 7E8F066D
CRC копии 7E8F066D
Копирование... OK

Трек 2

Имя файла D:\Torrents\Готовые закачки\Великий покаянный канон прп. Андрея Критского [Хор Свято-Троицкого Ионинского монастыря]\CD1\02 - Помощник и покровитель. Песнь 1.wav

Пиковый уровень 97.7 %
Качество трека 100.0 %
CRC теста E6BF0B10
CRC копии E6BF0B10
Копирование... OK

Трек 3

Имя файла D:\Torrents\Готовые закачки\Великий покаянный канон прп. Андрея Критского [Хор Свято-Троицкого Ионинского монастыря]\CD1\03 - Вонми небо. Песнь 2.wav

Пиковый уровень 97.9 %
Качество трека 100.0 %
CRC теста 1A1A2160
CRC копии 1A1A2160
Копирование... OK

Трек 4

Имя файла D:\Torrents\Готовые закачки\Великий покаянный канон прп. Андрея Критского [Хор Свято-Троицкого Ионинского монастыря]\CD1\04 - На недвижимом, Христе, камени. Песнь 3.wav

Пиковый уровень 97.7 %
Качество трека 100.0 %
CRC теста 0EAE114C
CRC копии 0EAE114C
Копирование... OK

Трек 5

Имя файла D:\Torrents\Готовые закачки\Великий покаянный канон прп. Андрея Критского [Хор Свято-Троицкого Ионинского монастыря]\CD1\05 - Услыша пророк. Песнь 4.wav

Пиковый уровень 97.9 %
Качество трека 100.0 %
CRC теста EC6851C2
CRC копии EC6851C2
Копирование... OK

Трек 6

Имя файла D:\Torrents\Готовые закачки\Великий покаянный канон прп. Андрея Критского [Хор Свято-Троицкого Ионинского монастыря]\CD1\06 - От нощи утренююща. Песнь 5.wav

Пиковый уровень 97.8 %
Качество трека 100.0 %
CRC теста 0EE86CDD
CRC копии 0EE86CDD
Копирование... OK

Трек 7

Имя файла D:\Torrents\Готовые закачки\Великий покаянный канон прп. Андрея Критского [Хор Свято-Троицкого Ионинского монастыря]\CD1\07 - Возопих всем сердцем. Песнь 6.wav

Пиковый уровень 97.8 %
Качество трека 100.0 %
CRC теста D8F193DE
CRC копии D8F193DE
Копирование... OK

Ошибок не произошло

Конец отчёта

CD2.
Exact Audio Copy V0.99 prebeta 4 from 23. January 2008

Отчёт EAC об извлечении, выполненном 3. сентября 2009, 10:44

Хор Свято-Троицкого Ионинского монастыря / Великий покаянный канон прп. Андрея Критского

Дисковод: HL-DT-STDVDRAM GH20NS10 Adapter: 2 ID: 2

Режим чтения : Достоверность
Использование точного потока : Да
Отключение кэша аудио : Да
Использование указателей C2 : Нет

Коррекция смещения при чтении : 667
Способность читать области Lead-in и Lead-out : Нет
Заполнение пропущенных сэмплов тишиной : Да
Удаление блоков с тишиной в начале и конце : Нет
При вычислениях CRC использовались нулевые сэмплы : Да
Интерфейс : Встроенный Win32-интерфейс для Win NT/2000
Обработка зазоров : Добавлено к предыдущему треку

Выходной формат : Пользовательский кодировщик
Выбранный битрейт : 1024 kBit/s
Качество : Высокий
Добавление ID3-тэга : Нет
Утилита сжатия : C:\Program Files\Exact Audio Copy\FLAC encoder\flac.exe
Дополнительные параметры : -6 -V -T "ARTIST=%a" -T "TITLE=%t" -T "ALBUM=%g" -T "DATE=%y" -T "TRACKNUMBER=%n" -T "GENRE=%m" -T "COMMENT=%e" %s -o %d

TOC извлечённого CD

Трек | Старт | Длительность | Начальный сектор | Конечный сектор
---------------------------------------------------------------------
1 | 0:00.00 | 2:37.31 | 0 | 11805
2 | 2:37.31 | 11:56.31 | 11806 | 65536
3 | 14:33.62 | 10:38.47 | 65537 | 113433
4 | 25:12.34 | 15:13.09 | 113434 | 181917
5 | 40:25.43 | 1:06.70 | 181918 | 186937
6 | 41:32.38 | 10:04.61 | 186938 | 232298
7 | 51:37.24 | 6:03.17 | 232299 | 259540

Трек 1

Имя файла D:\Torrents\Готовые закачки\Великий покаянный канон прп. Андрея Критского [Хор Свято-Троицкого Ионинского монастыря]\CD2\01 - Господи помилуй. Душе моя. Кондак.wav

Длина предзазора 0:00:02.00

Пиковый уровень 97.7 %
Качество трека 99.9 %
CRC теста 7BFDC808
CRC копии 7BFDC808
Копирование... OK

Трек 2

Имя файла D:\Torrents\Готовые закачки\Великий покаянный канон прп. Андрея Критского [Хор Свято-Троицкого Ионинского монастыря]\CD2\02 - Согрешихом, беззаконновахом. Песнь 7.wav

Пиковый уровень 97.7 %
Качество трека 100.0 %
CRC теста E3F1F7C8
CRC копии E3F1F7C8
Копирование... OK

Трек 3

Имя файла D:\Torrents\Готовые закачки\Великий покаянный канон прп. Андрея Критского [Хор Свято-Троицкого Ионинского монастыря]\CD2\03 - Егоже воинства. Песнь 8.wav

Пиковый уровень 89.7 %
Качество трека 100.0 %
CRC теста 0C8BD8B0
CRC копии 0C8BD8B0
Копирование... OK

Трек 4

Имя файла D:\Torrents\Готовые закачки\Великий покаянный канон прп. Андрея Критского [Хор Свято-Троицкого Ионинского монастыря]\CD2\04 - Безсеменнаго зачатия. Песнь 9.wav

Пиковый уровень 97.7 %
Качество трека 100.0 %
CRC теста FA8B59F8
CRC копии FA8B59F8
Копирование... OK

Трек 5

Имя файла D:\Torrents\Готовые закачки\Великий покаянный канон прп. Андрея Критского [Хор Свято-Троицкого Ионинского монастыря]\CD2\05 - Безсеменнаго зачатия. Катовасия.wav

Пиковый уровень 97.7 %
Качество трека 100.0 %
CRC теста 47720215
CRC копии 47720215
Копирование... OK

Трек 6

Имя файла D:\Torrents\Готовые закачки\Великий покаянный канон прп. Андрея Критского [Хор Свято-Троицкого Ионинского монастыря]\CD2\06 - На реках вавилонских. Пс. 136.wav

Длина предзазора 0:00:02.62

Пиковый уровень 97.7 %
Качество трека 100.0 %
CRC теста A1F3EC06
CRC копии A1F3EC06
Копирование... OK

Трек 7

Имя файла D:\Torrents\Готовые закачки\Великий покаянный канон прп. Андрея Критского [Хор Свято-Троицкого Ионинского монастыря]\CD2\07 - Покаяния отверзи ми двери.wav

Длина предзазора 0:00:02.11

Пиковый уровень 97.7 %
Качество трека 100.0 %
CRC теста 04FE9AD7
CRC копии 04FE9AD7
Копирование... OK

Ошибок не произошло

Конец отчёта
Download

Войдите для скачивания торрент-файла

Как скачивать  ·   Правила трекера



Последний раз редактировалось: СЕРГУЛЕТ (2011-07-10 20:42), всего редактировалось 1 раз
[Профиль]  [ЛС] 

Anatolyi58

Стаж: 6 лет 8 месяцев

Сообщений: 165

Russia

post 06-Мар-2011 21:37 (спустя 1 год 3 месяца)

[Цитировать] 

Спаси Господи!
[Профиль]  [ЛС] 

ded195413

Стаж: 6 лет 10 месяцев

Сообщений: 14

Откуда: Украина

Ukraine

post 08-Мар-2011 14:34 (спустя 1 день 16 часов)

[Цитировать] 

Спасибо. С Постом.http://alchevskpravoslavniy.ru/

_________________
http://svavva.ru/
[Профиль]  [ЛС] 

serpantin04

Стаж: 5 лет

Сообщений: 81

Belarus

post 24-Фев-2015 00:30 (спустя 3 года 11 месяцев)

[Цитировать] 

Спасибо. С началом поста!
[Профиль]  [ЛС] 

stepan-frunze

Стаж: 7 лет 9 месяцев

Сообщений: 2565

Russia

post 25-Фев-2015 18:00 (спустя 1 день 17 часов)

[Цитировать] 

Спаси Господи!
[Профиль]  [ЛС] 

зурван

Стаж: 1 год 10 месяцев

Сообщений: 2

Russia

post 16-Мар-2016 00:34 (спустя 1 год)

[Цитировать] 

Лучшее и единственное исполнение! Действительно молитва, а не концерт. Спаси Господи.
[Профиль]  [ЛС] 

зурван

Стаж: 1 год 10 месяцев

Сообщений: 2

Russia

post 18-Мар-2016 21:02 (спустя 2 дня 20 часов)

[Цитировать] 

Простите, попутал. Выше написанное относится к Богослужению, что совершает митр. Минский и Слуцкий Филарет.
[Профиль]  [ЛС] 
Показать сообщения:    
Ответить на тему

Текущее время: 08-Дек 00:15

Часовой пояс: GMT + 4



Вы не можете начинать темы
Вы не можете отвечать на сообщения
Вы не можете редактировать свои сообщения
Вы не можете удалять свои сообщения
Вы не можете голосовать в опросах
Вы не можете прикреплять файлы к сообщениям
Вы не можете скачивать файлы