Loading...
Error

(Церковная музыка и церковные хоры (lossless).) «Двунадесятые праздники». "Сретение Господне". Иеродиакон Герман (Рябцев). (2 CD). - 2004, APE (image + .cue), lossless

Ответить на тему
Статистика раздачи
   
 
Автор Сообщение

СЕРГУЛЕТ

Стаж: 11 лет

Сообщений: 2637

Откуда: LA ROMANA

Dominicanrep

post 15-Фев-2010 15:16

[Цитировать] 

«Двунадесятые праздники». "Сретение Господне". Иеродиакон Герман (Рябцев). (2 CD).

pic
Страна: Россия. Продюсерский центр Игоря Матвиенко.
Жанр: Церковная музыка и церковные хоры (lossless).
Год выпуска: 2004
Формат: APE (image + .cue)
Битрейт аудио: lossless
Продолжительность: 00:38:38+00:41:41
Трэклист:
ДИСК I
На вечерне:
1. «Господи, воззвах…» [с псалмами] (глас 1****)
2. Стихиры на «Господи, воззвах…»
«Глаголи Симеоне…»
«Приими, Симеоне…»
«Приидем и мы…» (глас 1*)
3. «Слава, и ныне…»
«Да отверзется дверь небесная днесь…» (глас 6*)
4. «Свете тихий…» (глас 1**)
5. Паремии
6. Стихира на литии «Ветхий день ми…» (глас 5**)
7. Осмогласник на стиховне**
На утрене:
8. «Бог Господь…» (глас 1***)
Тропарь праздника «Радуйся, Благодатная Богородице Дево…» (глас 1)
ДИСК II
1. Полиелей ***
2. Величание **
3. Седален «Младенствуюши мене ради…»
4. «От юности моея…» (глас 4***/****)
5. Чин Евангелия (глас 4****)
Канон праздника (глас 3*/**)
6. Песнь 1
7. Седален «На горе Синайстей…»
8. Песнь 6
9. Кондак «Утробу девичу освятивый рождеством Твоим…» (глас 1**)
Икос «К Богородице притецем хотяще Сына Ея видите…»
10. Песнь 9
11. «Всякое дыхание…» (глас 4****)
12. Стихиры на хвалитех «Закон иже в Писании…»
«Свет во откровение языков…»
«Недр родителя не отлучся Божество…» (глас 4*****)
13. «Слава, и ныне…»
«На руках старческих днешний день…» (глас 6**)

* знаменный распев
** знаменный распев с исоном
*** валаамский распев
**** валаамский распев с исоном
***** малый знаменный распев с исоном
Дополнительная информация: Чтение Евангелия-иерей Ростислав Перебейнос.
Записано в домашней студии.
2003 год.
EAC log
Exact Audio Copy V0.99 prebeta 5 from 4. May 2009

Отчёт EAC об извлечении, выполненном 14. февраля 2010, 22:47

Иеродиакон Герман (Рябцев) / Сретение Господне-1

Дисковод: ASUS DRW-2014L1T Adapter: 0 ID: 1

Режим чтения : Скоростной

Коррекция смещения при чтении : 6
Способность читать области Lead-in и Lead-out : Нет
Заполнение пропущенных сэмплов тишиной : Да
Удаление блоков с тишиной в начале и конце : Нет
При вычислениях CRC использовались нулевые сэмплы : Да
Интерфейс : Встроенный Win32-интерфейс для Win NT/2000

Выходной формат : Внутренние WAV-операции
Формат сэмплов : 44.100 Гц; 16 бит; стерео

TOC извлечённого CD

Трек | Старт | Длительность | Начальный сектор | Конечный сектор
---------------------------------------------------------------------
1 | 0:00.00 | 3:50.70 | 0 | 17319
2 | 3:50.70 | 5:14.71 | 17320 | 40940
3 | 9:05.66 | 3:30.54 | 40941 | 56744
4 | 12:36.45 | 3:20.63 | 56745 | 71807
5 | 15:57.33 | 9:54.33 | 71808 | 116390
6 | 25:51.66 | 2:13.10 | 116391 | 126375
7 | 28:05.01 | 6:17.55 | 126376 | 154705
8 | 34:22.56 | 4:16.04 | 154706 | 173909

Характеристики диапазона извлечения и сообщения об ошибках

Выбранный диапазон

Имя файла C:\Иеродиакон Герман (Рябцев) - Сретение Господне-1.wav

Проблемы синхронизации 0:00:38

Пиковый уровень 99.1 %
CRC копии 390A3165
Копирование завершено

Ошибок не произошло

Конец отчёта

cd2.
Exact Audio Copy V0.99 prebeta 5 from 4. May 2009

Отчёт EAC об извлечении, выполненном 14. февраля 2010, 22:50

Иеродиакон Герман (Рябцев) / Сретение Господне-2

Дисковод: ASUS DRW-2014L1T Adapter: 0 ID: 1

Режим чтения : Скоростной

Коррекция смещения при чтении : 6
Способность читать области Lead-in и Lead-out : Нет
Заполнение пропущенных сэмплов тишиной : Да
Удаление блоков с тишиной в начале и конце : Нет
При вычислениях CRC использовались нулевые сэмплы : Да
Интерфейс : Встроенный Win32-интерфейс для Win NT/2000

Выходной формат : Внутренние WAV-операции
Формат сэмплов : 44.100 Гц; 16 бит; стерео

TOC извлечённого CD

Трек | Старт | Длительность | Начальный сектор | Конечный сектор
---------------------------------------------------------------------
1 | 0:00.00 | 6:02.02 | 0 | 27151
2 | 6:02.02 | 1:00.30 | 27152 | 31681
3 | 7:02.32 | 0:40.73 | 31682 | 34754
4 | 7:43.30 | 0:54.34 | 34755 | 38838
5 | 8:37.64 | 4:11.63 | 38839 | 57726
6 | 12:49.52 | 3:29.59 | 57727 | 73460
7 | 16:19.36 | 0:42.63 | 73461 | 76673
8 | 17:02.24 | 2:17.68 | 76674 | 87016
9 | 19:20.17 | 2:48.07 | 87017 | 99623
10 | 22:08.24 | 10:16.07 | 99624 | 145830
11 | 32:24.31 | 3:06.42 | 145831 | 159822
12 | 35:30.73 | 3:52.00 | 159823 | 177222
13 | 39:22.73 | 2:18.03 | 177223 | 187575

Характеристики диапазона извлечения и сообщения об ошибках

Выбранный диапазон

Имя файла C:\Иеродиакон Герман (Рябцев) - Сретение Господне-2.wav

Проблемы синхронизации 0:00:38

Пиковый уровень 89.1 %
CRC копии 08E92F01
Копирование завершено

Ошибок не произошло

Конец отчёта
Download

Войдите на сайт, чтобы увидеть полную информацию.

Как скачивать  ·   Правила трекера

[Профиль]  [ЛС] 

4x4Runner

Стаж: 7 лет 1 месяц

Сообщений: 15

post 03-Мар-2014 12:29 (спустя 4 года)

[Цитировать] 

Благодарю!
[Профиль]  [ЛС] 

0304mel

Стаж: 6 лет 10 месяцев

Сообщений: 111

Russia

post 20-Окт-2014 20:47 (спустя 7 месяцев)

[Цитировать] 

Спасибо Вам за добрые дела.
[Профиль]  [ЛС] 

Иван Владимирович

Стаж: 1 месяц 25 дней

Сообщений: 48

Russia

post 10-Фев-2020 15:50 (спустя 5 лет 3 месяца)

[Цитировать] 

Встаньте на раздачу!))
[Профиль]  [ЛС] 
Показать сообщения:    
Ответить на тему

Текущее время: 05-Апр 11:55

Часовой пояс: GMT + 4



Вы не можете начинать темы
Вы не можете отвечать на сообщения
Вы не можете редактировать свои сообщения
Вы не можете удалять свои сообщения
Вы не можете голосовать в опросах
Вы не можете прикреплять файлы к сообщениям
Вы не можете скачивать файлы