Loading...
Error

(Церковная музыка и церковные хоры (lossless).) «Двунадесятые праздники». "Благовещение Пресвятой Богородицы". Иеродиакон Герман (Рябцев). (2 CD). - 2003, APE (image + .cue), lossless

Ответить на тему
Статистика раздачи
   
 
Автор Сообщение

СЕРГУЛЕТ

Стаж: 8 лет 8 месяцев

Сообщений: 2640

Откуда: LA ROMANA

Dominicanrep

post 15-Фев-2010 15:27

[Цитировать] 

«Двунадесятые праздники». "Благовещение Пресвятой Богородицы". Иеродиакон Герман (Рябцев). (2 CD).

pic
Страна: Россия. Продюсерский центр Игоря Матвиенко.
Жанр: Церковная музыка и церковные хоры (lossless).
Год выпуска: 2003
Формат: APE (image + .cue)
Битрейт аудио: lossless
Продолжительность: 00:47:13+00:45:53
Трэклист:
ДИСК I
1. «Господи, воззвах…» [с псалмами] (глас 6 ******)
Стихиры на «Господи, воззвах…» (глас 6)
2. «Совет превечный…»*
3. «Являешися мне, яко человек…»*
4. «Бог идеже хочет…»*
5. «Слава, и ныне…», «Послан бысть с небесе…» (глас 6 *)
6. «Свете тихий…» (глас 6**)
7. Паремии
Стихиры (глас 4)
8. «В шестый месяц послан бысть…»*
9. «Языка егоже не ведяше…»****
10. «Се воззвание ныне явися нам…»****
11. «Слава, и ныне…», «Днесь радость Благовещения…» (глас 4)
12. «Бог Господь…» (глас 4*******)
13. Тропарь праздника «Днесь спасения нашего главизна…» (глac 4 *******/***/*)
14. Полиелей *****

ДИСК II
1. Величание Пресвятой Богородице*
2. Чин Евангелия ******
3. Псалом 50
4. «Благовествует Гавриил…» (глас 2**)
Канон праздника (глас 4 */**)
5. Песнь 1, 3
6. Песнь 4, 5, 6
7. Кондак «Взбранной Воеводе…» (глас 8 *)
Икос «Ангел предстатель с небесе…»
8. Песнь 7, 8
9. Песнь 9
10. «Всякое дыхание…» (глас 1******)
11. Стихира на хвалитех «С небесных кругов…» (глас 1; Напев Оптиной пустыни с исоном)
12. «Слава, и ныне…», « Еже от века таинство…» (глас 2*)

* знаменная монодия
** знаменный распев c исоном
*** малый знаменный распев, монодия
**** малый знаменный распев и исоном
***** валаамская монодия
****** валаамский распев с исоном
******* обиходная монодия
Дополнительная информация: Чтение Евангелия-иерей Ростислав Перебейнос.
Записано в домашней студии.
2003 год.
EAC log
Exact Audio Copy V0.99 prebeta 5 from 4. May 2009

Отчёт EAC об извлечении, выполненном 14. февраля 2010, 23:31

Иеродиакон Герман (Рябцев) / Благовещение Пресвятой Богородицы-1

Дисковод: ASUS DRW-2014L1T Adapter: 0 ID: 1

Режим чтения : Скоростной

Коррекция смещения при чтении : 6
Способность читать области Lead-in и Lead-out : Нет
Заполнение пропущенных сэмплов тишиной : Да
Удаление блоков с тишиной в начале и конце : Нет
При вычислениях CRC использовались нулевые сэмплы : Да
Интерфейс : Встроенный Win32-интерфейс для Win NT/2000

Выходной формат : Внутренние WAV-операции
Формат сэмплов : 44.100 Гц; 16 бит; стерео

TOC извлечённого CD

Трек | Старт | Длительность | Начальный сектор | Конечный сектор
---------------------------------------------------------------------
1 | 0:00.00 | 3:44.27 | 0 | 16826
2 | 3:44.27 | 4:12.26 | 16827 | 35752
3 | 7:56.53 | 3:54.14 | 35753 | 53316
4 | 11:50.67 | 3:58.63 | 53317 | 71229
5 | 15:49.55 | 6:50.28 | 71230 | 102007
6 | 22:40.08 | 3:21.64 | 102008 | 117146
7 | 26:01.72 | 5:20.67 | 117147 | 141213
8 | 31:22.64 | 1:46.62 | 141214 | 149225
9 | 33:09.51 | 1:17.05 | 149226 | 155005
10 | 34:26.56 | 1:13.49 | 155006 | 160529
11 | 35:40.30 | 5:03.72 | 160530 | 183326
12 | 40:44.27 | 1:29.63 | 183327 | 190064
13 | 42:14.15 | 3:01.21 | 190065 | 203660
14 | 45:15.36 | 1:58.11 | 203661 | 212521

Характеристики диапазона извлечения и сообщения об ошибках

Выбранный диапазон

Имя файла C:\Иеродиакон Герман (Рябцев) - Благовещение Пресвятой Богородицы-1.wav

Проблемы синхронизации 0:00:38

Пиковый уровень 97.7 %
CRC копии 31457663
Копирование завершено

Ошибок не произошло

Конец отчёта

CD2/
Exact Audio Copy V0.99 prebeta 5 from 4. May 2009

Отчёт EAC об извлечении, выполненном 14. февраля 2010, 23:34

Unknown Artist / Благовещение-2

Дисковод: ASUS DRW-2014L1T Adapter: 0 ID: 1

Режим чтения : Скоростной

Коррекция смещения при чтении : 6
Способность читать области Lead-in и Lead-out : Нет
Заполнение пропущенных сэмплов тишиной : Да
Удаление блоков с тишиной в начале и конце : Нет
При вычислениях CRC использовались нулевые сэмплы : Да
Интерфейс : Встроенный Win32-интерфейс для Win NT/2000

Выходной формат : Внутренние WAV-операции
Формат сэмплов : 44.100 Гц; 16 бит; стерео

TOC извлечённого CD

Трек | Старт | Длительность | Начальный сектор | Конечный сектор
---------------------------------------------------------------------
1 | 0:00.00 | 0:42.18 | 0 | 3167
2 | 0:42.18 | 3:48.55 | 3168 | 20322
3 | 4:30.73 | 1:56.36 | 20323 | 29058
4 | 6:27.34 | 2:16.01 | 29059 | 39259
5 | 8:43.35 | 5:06.59 | 39260 | 62268
6 | 13:50.19 | 7:14.06 | 62269 | 94824
7 | 21:04.25 | 3:12.41 | 94825 | 109265
8 | 24:16.66 | 6:37.33 | 109266 | 139073
9 | 30:54.24 | 7:07.47 | 139074 | 171145
10 | 38:01.71 | 3:11.34 | 171146 | 185504
11 | 41:13.30 | 1:04.62 | 185505 | 190366
12 | 42:18.17 | 3:34.67 | 190367 | 206483

Характеристики диапазона извлечения и сообщения об ошибках

Выбранный диапазон

Имя файла C:\Unknown Artist - Благовещение-2.wav

Проблемы синхронизации 0:00:38

Пиковый уровень 97.7 %
CRC копии 9C94CC7E
Копирование завершено

Ошибок не произошло

Конец отчёта
Download

Войдите на сайт, чтобы увидеть полную информацию.

Как скачивать  ·   Правила трекера

[Профиль]  [ЛС] 

Владимир Лухов

Стаж: 7 лет 1 месяц

Сообщений: 109

Откуда: Саратов

Russia

post 06-Апр-2014 17:53 (спустя 4 года 1 месяц)

[Цитировать] 

Спасибо.

_________________
С уважением. Владимир.
[Профиль]  [ЛС] 

serpantin04

Стаж: 5 лет 11 месяцев

Сообщений: 84

Belarus

post 15-Июн-2014 12:50 (спустя 2 месяца 8 дней)

[Цитировать] 

Очень рад.Спасибо.
[Профиль]  [ЛС] 

0304mel

Стаж: 4 года 4 месяца

Сообщений: 111

Russia

post 20-Окт-2014 20:35 (спустя 4 месяца 5 дней)

[Цитировать] 

СПАСИ БОГ!
[Профиль]  [ЛС] 

mars1574

Стаж: 3 года 9 месяцев

Сообщений: 33

Russia

post 07-Окт-2017 14:00 (спустя 2 года 11 месяцев)

[Цитировать] 

Cпаси Гoсподи
[Профиль]  [ЛС] 
Показать сообщения:    
Ответить на тему

Текущее время: 19-Окт 01:54

Часовой пояс: GMT + 4



Вы не можете начинать темы
Вы не можете отвечать на сообщения
Вы не можете редактировать свои сообщения
Вы не можете удалять свои сообщения
Вы не можете голосовать в опросах
Вы не можете прикреплять файлы к сообщениям
Вы не можете скачивать файлы