Loading...
Error

Остров надежды (Елена Плыгун) [2013 г., Документальный, православно-познавательный, DVD5]

Ответить на тему
Статистика раздачи
   
 
Автор Сообщение

stepan-frunze

Стаж: 10 лет

Сообщений: 2563

Russia

post 14-Янв-2014 00:35

[Цитировать] 

Остров надежды

pic
Год выпуска: 2013
Жанр: Документальный, православно-познавательный
Продолжительность: 00:58:14

Режиссер: Елена Плыгун

Описание: О фильме: Фильм о маленьком островке Неба на земле, куда течет река горя человеческого... Алкоголь. Наркомания. Курение. Игромания. Рак... Фильм - ПОМОЩЬ! Помощь людям, страдающим болезнями духовными и телесными. Фильм - НАДЕЖДА!. Надежда на милость Божию и исцеление...

Дополнительная информация: Сканы в раздаче!

Качество: DVD5
Формат: DVD Video
Видео кодек: MPEG2
Аудио кодек: AC3
Видео: MPEG 2, 720x576 (16:9), 25.000 fps, 9 100 Kbps (0.878 bit/pixel)
Аудио: MP2, 48.0 KHz, 2 ch, 224 Kbps, CBR
скриншоты
pic pic pic pic

pic pic pic pic

pic
MediaInfo
Общее
Полное имя : C:\Остров надежды 2013 РУ DVD-5\VIDEO_TS\VIDEO_TS.BUP
Формат : DVD Video
Профиль формата : Menu
Размер файла : 6,00 Кбайт
Режим общего битрейта : Переменный

Видео
Идентификатор : 224 (0xE0)
Формат : MPEG Video
Версия формата : Version 1
Вид битрейта : Переменный
Ширина : 720 пикселей
Высота : 480 пикселей
Соотношение сторон : 4:3
Частота кадров : 29,970 кадров/сек
Стандарт вещания : NTSC
Метод сжатия : С потерями

Общее
Полное имя : C:\Остров надежды 2013 РУ DVD-5\VIDEO_TS\VIDEO_TS.IFO
Формат : DVD Video
Профиль формата : Menu
Размер файла : 6,00 Кбайт
Режим общего битрейта : Переменный

Видео
Идентификатор : 224 (0xE0)
Формат : MPEG Video
Версия формата : Version 1
Вид битрейта : Переменный
Ширина : 720 пикселей
Высота : 480 пикселей
Соотношение сторон : 4:3
Частота кадров : 29,970 кадров/сек
Стандарт вещания : NTSC
Метод сжатия : С потерями

Общее
Полное имя : C:\Остров надежды 2013 РУ DVD-5\VIDEO_TS\VTS_01_0.BUP
Формат : DVD Video
Профиль формата : Program
Размер файла : 40,0 Кбайт
Продолжительность : 58 м.
Режим общего битрейта : Переменный
Общий поток : 94 бит/сек

Видео
Идентификатор : 224 (0xE0)
Формат : MPEG Video
Версия формата : Version 2
Продолжительность : 58 м.
Вид битрейта : Переменный
Ширина : 720 пикселей
Высота : 576 пикселей
Соотношение сторон : 16:9
Частота кадров : 25,000 кадров/сек
Стандарт вещания : PAL
Метод сжатия : С потерями

Аудио
Идентификатор : 0 (0x0)
Формат : MPEG Audio
Профиль формата : Version 1
Продолжительность : 58 м.
Каналы : 2 канала
Частота : 48,0 КГц
Метод сжатия : С потерями

Меню
Продолжительность : 58 м.
00:00:00.000 : Chapter 1
List (Audio) : 0

Общее
Полное имя : C:\Остров надежды 2013 РУ DVD-5\VIDEO_TS\VTS_01_0.IFO
Формат : DVD Video
Профиль формата : Program
Размер файла : 40,0 Кбайт
Продолжительность : 58 м.
Режим общего битрейта : Переменный
Общий поток : 94 бит/сек

Видео
Идентификатор : 224 (0xE0)
Формат : MPEG Video
Версия формата : Version 2
Продолжительность : 58 м.
Вид битрейта : Переменный
Ширина : 720 пикселей
Высота : 576 пикселей
Соотношение сторон : 16:9
Частота кадров : 25,000 кадров/сек
Стандарт вещания : PAL
Метод сжатия : С потерями

Аудио
Идентификатор : 0 (0x0)
Формат : MPEG Audio
Профиль формата : Version 1
Продолжительность : 58 м.
Каналы : 2 канала
Частота : 48,0 КГц
Метод сжатия : С потерями

Меню
Продолжительность : 58 м.
00:00:00.000 : Chapter 1
List (Audio) : 0

Общее
Полное имя : C:\Остров надежды 2013 РУ DVD-5\VIDEO_TS\VTS_01_1.VOB
Формат : MPEG-PS
Размер файла : 1024 Мбайт
Продолжительность : 15 м.
Режим общего битрейта : Переменный
Общий поток : 9430 Кбит/сек

Видео
Идентификатор : 224 (0xE0)
Формат : MPEG Video
Версия формата : Version 2
Профиль формата : Main@Main
Параметр BVOP формата : Да
Параметр матрицы формата : Выборочная
Параметр GOP формата : Variable
Продолжительность : 15 м.
Вид битрейта : Переменный
Битрейт : 9100 Кбит/сек
Ширина : 720 пикселей
Высота : 576 пикселей
Соотношение сторон : 16:9
Частота кадров : 25,000 кадров/сек
Стандарт вещания : PAL
Цветовое пространство : YUV
Субдискретизация насыщенности : 4:2:0
Битовая глубина : 8 бит
Тип развёртки : Чересстрочная
Порядок развёртки : Верхнее поле первое
Метод сжатия : С потерями
Бит/(Пиксели*Кадры) : 0.878
Временной код первого кадра : 00:00:00:00
Оригинал временного кода : Group of pictures header
Размер потока : 979 Мбайт (96%)

Аудио
Идентификатор : 192 (0xC0)
Формат : MPEG Audio
Версия формата : Version 1
Профиль формата : Layer 2
Продолжительность : 15 м.
Вид битрейта : Постоянный
Битрейт : 224 Кбит/сек
Каналы : 2 канала
Частота : 48,0 КГц
Метод сжатия : С потерями
Размер потока : 24,3 Мбайт (2%)

Меню

Общее
Полное имя : C:\Остров надежды 2013 РУ DVD-5\VIDEO_TS\VTS_01_2.VOB
Формат : MPEG-PS
Размер файла : 1024 Мбайт
Продолжительность : 15 м.
Режим общего битрейта : Переменный
Общий поток : 9437 Кбит/сек

Видео
Идентификатор : 224 (0xE0)
Формат : MPEG Video
Версия формата : Version 2
Профиль формата : Main@Main
Параметр BVOP формата : Да
Параметр матрицы формата : Выборочная
Параметр GOP формата : M=3, N=15
Продолжительность : 15 м.
Вид битрейта : Переменный
Битрейт : 9100 Кбит/сек
Ширина : 720 пикселей
Высота : 576 пикселей
Соотношение сторон : 16:9
Частота кадров : 25,000 кадров/сек
Стандарт вещания : PAL
Цветовое пространство : YUV
Субдискретизация насыщенности : 4:2:0
Битовая глубина : 8 бит
Тип развёртки : Чересстрочная
Порядок развёртки : Верхнее поле первое
Метод сжатия : С потерями
Бит/(Пиксели*Кадры) : 0.878
Временной код первого кадра : 00:15:11:02
Оригинал временного кода : Group of pictures header
Размер потока : 979 Мбайт (96%)

Аудио
Идентификатор : 192 (0xC0)
Формат : MPEG Audio
Версия формата : Version 1
Профиль формата : Layer 2
Продолжительность : 15 м.
Вид битрейта : Постоянный
Битрейт : 224 Кбит/сек
Каналы : 2 канала
Частота : 48,0 КГц
Метод сжатия : С потерями
Задержка видео : 8 мс.
Размер потока : 24,3 Мбайт (2%)

Меню

Общее
Полное имя : C:\Остров надежды 2013 РУ DVD-5\VIDEO_TS\VTS_01_3.VOB
Формат : MPEG-PS
Размер файла : 1024 Мбайт
Продолжительность : 15 м.
Режим общего битрейта : Переменный
Общий поток : 9434 Кбит/сек

Видео
Идентификатор : 224 (0xE0)
Формат : MPEG Video
Версия формата : Version 2
Профиль формата : Main@Main
Параметр BVOP формата : Да
Параметр матрицы формата : Выборочная
Параметр GOP формата : M=3, N=15
Продолжительность : 15 м.
Вид битрейта : Переменный
Битрейт : 9100 Кбит/сек
Ширина : 720 пикселей
Высота : 576 пикселей
Соотношение сторон : 16:9
Частота кадров : 25,000 кадров/сек
Стандарт вещания : PAL
Цветовое пространство : YUV
Субдискретизация насыщенности : 4:2:0
Битовая глубина : 8 бит
Тип развёртки : Чересстрочная
Порядок развёртки : Верхнее поле первое
Метод сжатия : С потерями
Бит/(Пиксели*Кадры) : 0.878
Временной код первого кадра : 00:30:21:04
Оригинал временного кода : Group of pictures header
Размер потока : 979 Мбайт (96%)

Аудио
Идентификатор : 192 (0xC0)
Формат : MPEG Audio
Версия формата : Version 1
Профиль формата : Layer 2
Продолжительность : 15 м.
Вид битрейта : Постоянный
Битрейт : 224 Кбит/сек
Каналы : 2 канала
Частота : 48,0 КГц
Метод сжатия : С потерями
Задержка видео : -128 мс.
Размер потока : 24,3 Мбайт (2%)

Меню

Общее
Полное имя : C:\Остров надежды 2013 РУ DVD-5\VIDEO_TS\VTS_01_4.VOB
Формат : MPEG-PS
Размер файла : 857 Мбайт
Продолжительность : 12 м.
Режим общего битрейта : Переменный
Общий поток : 9424 Кбит/сек

Видео
Идентификатор : 224 (0xE0)
Формат : MPEG Video
Версия формата : Version 2
Профиль формата : Main@Main
Параметр BVOP формата : Да
Параметр матрицы формата : Выборочная
Параметр GOP формата : M=3, N=15
Продолжительность : 12 м.
Вид битрейта : Переменный
Битрейт : 9100 Кбит/сек
Ширина : 720 пикселей
Высота : 576 пикселей
Соотношение сторон : 16:9
Частота кадров : 25,000 кадров/сек
Стандарт вещания : PAL
Цветовое пространство : YUV
Субдискретизация насыщенности : 4:2:0
Битовая глубина : 8 бит
Тип развёртки : Чересстрочная
Порядок развёртки : Верхнее поле первое
Метод сжатия : С потерями
Бит/(Пиксели*Кадры) : 0.878
Временной код первого кадра : 00:45:31:16
Оригинал временного кода : Group of pictures header
Размер потока : 819 Мбайт (96%)

Аудио
Идентификатор : 192 (0xC0)
Формат : MPEG Audio
Версия формата : Version 1
Профиль формата : Layer 2
Продолжительность : 12 м.
Вид битрейта : Постоянный
Битрейт : 224 Кбит/сек
Каналы : 2 канала
Частота : 48,0 КГц
Метод сжатия : С потерями
Задержка видео : -80 мс.
Размер потока : 20,4 Мбайт (2%)

Меню
DVDinfo
Title: Остров надежды 2013 РУ DVD-5
Size: 3.84 Gb ( 4 023 058,00 KBytes ) - DVD-5
Enabled regions: 1, 2, 3, 4, 5, 6, 7, 8

VTS_01 :
Play Length: 00:58:14
Video: PAL 16:9 (720x576) VBR, Auto Pan&Scan, Auto Letterboxed
Audio:
Not specified (MPEG1, 2 ch)

* Menus Information *

VIDEO_TS Menu
Video:
NTSC 4:3 (720x480) VBR
Auto Pan&Scan, Auto Letterboxed
Language Unit :


VTS_01 Menu
Video:
NTSC 4:3 (720x480) VBR
Auto Pan&Scan, Auto Letterboxed
Language Unit :
Chapter (PTT) Menu
pic
Download

Войдите на сайт, чтобы увидеть полную информацию.

Как скачивать  ·   Правила трекера



Последний раз редактировалось: stepan-frunze (2014-06-20 01:02), всего редактировалось 6 раз(а)
[Профиль]  [ЛС] 

andrejpushkaryov

Модератор

Стаж: 10 лет

Сообщений: 1054

Откуда: Ижевск

Russia

post 14-Янв-2014 08:48 (спустя 8 часов)

[Цитировать] 

Скриншоты оригинального разрешения или для DVD видео анаморфированные в колличестве не менее 4-х.
Arrow Требования к видео-раздачам на трекере
[Профиль]  [ЛС] 

karmen1977

Стаж: 9 лет 4 месяца

Сообщений: 69

Откуда: Нижний Новгород

Russia

post 15-Янв-2014 13:01 (спустя 1 день 4 часа)

[Цитировать] 

Спаси Бог!!!

_________________
Христос Воскресе!
[Профиль]  [ЛС] 

Александр 2

Стаж: 6 лет

Сообщений: 24

Откуда: из пос. Лесного

Ussr

post 22-Янв-2014 21:04 (спустя 7 дней)

[Цитировать] 

А продолжения нету?
[Профиль]  [ЛС] 

stepan-frunze

Стаж: 10 лет

Сообщений: 2563

Russia

post 04-Фев-2014 23:09 (спустя 13 дней)

[Цитировать] 

Александр 2 писал(а):

А продолжения нету?
нету
pic
[Профиль]  [ЛС] 

Сергей 12

Стаж: 9 лет 2 месяца

Сообщений: 64

Откуда: Киев

Ukraine

post 19-Сен-2014 15:45 (спустя 7 месяцев)

[Цитировать] 

Спаси Господи!Фильм прекрасный, отрезвляет душу от страстей!

_________________
Иисусе, Сыне Божий, помяни нас, егда приидеши во Царствии Твоем!
pic[/url]
[Профиль]  [ЛС] 

Игорь I

Стаж: 10 лет

Сообщений: 1912

Russia

post 14-Окт-2014 16:22 (спустя 25 дней)

[Цитировать] 

Благодарю
[Профиль]  [ЛС] 

катюша2608198

Стаж: 5 лет 11 месяцев

Сообщений: 2

post 26-Фев-2015 01:03 (спустя 4 месяца 11 дней)

[Цитировать] 

Спаси Господи! Очень хороший фильм. Очень понравился. Так хочется больше узнать о самом о. Александре о его жизни...
[Профиль]  [ЛС] 

uk9cbd

Стаж: 5 лет 10 месяцев

Сообщений: 105

Russia

post 31-Мар-2015 09:30 (спустя 1 месяц 5 дней)

[Цитировать] 

А раздача будет? Спасибо. Скачаю - постою на раздаче.

_________________
Мир всем...
[Профиль]  [ЛС] 
Показать сообщения:    
Ответить на тему

Текущее время: 19-Янв 16:54

Часовой пояс: GMT + 4



Вы не можете начинать темы
Вы не можете отвечать на сообщения
Вы не можете редактировать свои сообщения
Вы не можете удалять свои сообщения
Вы не можете голосовать в опросах
Вы не можете прикреплять файлы к сообщениям
Вы не можете скачивать файлы