Loading...
Error

(Церковная музыка и церковные хоры (lossless)) "Херувимская Песнь" разных распевов. - 2007, APE (image + .cue), lossless

Ответить на тему
Статистика раздачи
Скачали: [ 12 ]
   
 
Автор Сообщение

СЕРГУЛЕТ

Стаж: 8 лет

Сообщений: 2639

Откуда: LA ROMANA

Dominicanrep

post 05-Июл-2011 15:19

[Цитировать] 

"Херувимская Песнь" разных распевов.

pic
Страна: Россия.
Жанр: Церковная музыка и церковные хоры (lossless)
Год выпуска: 2007
Формат: APE (image + .cue)
Битрейт аудио: lossless
Продолжительность: 00:54:52
Трэклист:
01. Музыческу (Хор Пюхтицкого Успенского женского монастыря)
02. Грузинский напев (Хор Свято-Введенского женского монастыря г. Иваново)
03. Валаамский распев (Хор 'Валаам' п/у И. Ушакова)
04. П. Чесноков (Хор 'Валаам' п/у И. Ушакова)
05. Напев Софрониевской Пустыни (Братский хор Святогорского монастыря)
06. Литвиненко (Хор Владимирского Собора г. Киева)
07. Д. Бортнянский (Хор издательского отдела Московской Патриархии п/у иером. Амвросия)
08. Н. Голованов (Хор издательского отдела Московской Патриархии п/у иером. Амвросия)
09. В. Калинников (Хор издательского отдела Московской Патриархии п/у иером. Амвросия)
10. еп. Ионафан (Елецких)(Хор издательского отдела Московской Патриархии п/у Носова)
11. Напев Старо-Симонова монастыря (Хор Троице-Сергиевой Лавры п/у архим. Матфея (Мормыль))
EAC log
Exact Audio Copy V0.99 prebeta 3 from 28. July 2007

Отчёт EAC об извлечении, выполненном 13. января 2008, 18:54

- / Херувимская песнь

Дисковод: PHILIPS DVD-RAM SDVD8821 Adapter: 0 ID: 1

Режим чтения : Достоверность
Использование точного потока : Да
Отключение кэша аудио : Да
Использование указателей C2 : Нет

Коррекция смещения при чтении : -676
Способность читать области Lead-in и Lead-out : Нет
Заполнение пропущенных сэмплов тишиной : Да
Удаление блоков с тишиной в начале и конце : Нет
При вычислениях CRC использовались нулевые сэмплы : Нет
Интерфейс : Установленный внешний ASPI-интерфейс

Выходной формат : Внутренние WAV-операции
Формат сэмплов : 44.100 Гц; 16 бит; стерео

TOC извлечённого CD

Трек | Старт | Длительность | Начальный сектор | Конечный сектор
---------------------------------------------------------------------
1 | 0:00.00 | 5:16.70 | 0 | 23769
2 | 5:16.70 | 3:39.02 | 23770 | 40196
3 | 8:55.72 | 5:43.61 | 40197 | 65982
4 | 14:39.58 | 3:56.38 | 65983 | 83720
5 | 18:36.21 | 4:09.62 | 83721 | 102457
6 | 22:46.08 | 6:33.08 | 102458 | 131940
7 | 29:19.16 | 6:37.43 | 131941 | 161758
8 | 35:56.59 | 5:13.50 | 161759 | 185283
9 | 41:10.34 | 4:38.41 | 185284 | 206174
10 | 45:49.00 | 3:35.45 | 206175 | 222344
11 | 49:24.45 | 5:28.70 | 222345 | 247014

Характеристики диапазона извлечения и сообщения об ошибках

Выбранный диапазон

Имя файла C:\Documents and Settings\Алексей\Мои документы\Downloads\Херувимская песнь.wav

Пиковый уровень 98.8 %
Качество диапазона 100.0 %
CRC копии 127F192E
Копирование... OK

Ошибок не произошло

Конец отчёта
Download

Войдите для скачивания торрент-файла

Как скачивать  ·   Правила трекера

[Профиль]  [ЛС] 

gavrik.s

Стаж: 5 лет 1 месяц

Сообщений: 83

post 02-Апр-2012 11:45 (спустя 8 месяцев)

[Цитировать] 

Спасибо.
[Профиль]  [ЛС] 

rsn

Стаж: 4 года 11 месяцев

Сообщений: 26

Ussr

post 25-Июл-2012 13:17 (спустя 3 месяца 23 дня)

[Цитировать] 

Благодарю. ay
[Профиль]  [ЛС] 

mi2star

Стаж: 4 года 3 месяца

Сообщений: 10

Russia

post 30-Окт-2012 22:36 (спустя 3 месяца 5 дней)

[Цитировать] 

Братья и сестры!
Встаньте кто-нибудь на раздачу.
Спаси, вас, Господи!
[Профиль]  [ЛС] 

mi2star

Стаж: 4 года 3 месяца

Сообщений: 10

Russia

post 31-Окт-2012 22:24 (спустя 23 часа)

[Цитировать] 

Огромное спасибо Sergoorg и Лика, за то, что встали на раздачу!
Спаси Господи!
[Профиль]  [ЛС] 

rostik

Стаж: 7 лет 11 месяцев

Сообщений: 42

Откуда: Днепропетровск

Ukraine

post 04-Ноя-2012 17:36 (спустя 3 дня)

[Цитировать] 

Спасибо! +
Храни Вас Господь! +++
[Профиль]  [ЛС] 

--Илья--

Стаж: 2 года 5 месяцев

Сообщений: 1

Russia

post 18-Сен-2014 14:45 (спустя 1 год 10 месяцев)

[Цитировать] 

Храни Вас Господь, братья и сестры! Не дайте зависнуть тут надолго- помогите с раздачей! Спаси Вас Господи!
[Профиль]  [ЛС] 

Оксана-09

Стаж: 5 лет 3 месяца

Сообщений: 30

post 16-Июн-2015 15:28 (спустя 8 месяцев)

[Цитировать] 

Спаси Господи!
[Профиль]  [ЛС] 

mangealic

Стаж: 2 года 6 месяцев

Сообщений: 22

post 16-Янв-2016 18:25 (спустя 7 месяцев)

[Цитировать] 

Благодарю
[Профиль]  [ЛС] 

Nathan

Стаж: 7 лет 3 месяца

Сообщений: 16

Ussr

post 01-Сен-2016 20:01 (спустя 7 месяцев)

[Цитировать] 

спасибо!
[Профиль]  [ЛС] 
Показать сообщения:    
Ответить на тему

Текущее время: 27-Фев 12:53

Часовой пояс: GMT + 4



Вы не можете начинать темы
Вы не можете отвечать на сообщения
Вы не можете редактировать свои сообщения
Вы не можете удалять свои сообщения
Вы не можете голосовать в опросах
Вы не можете прикреплять файлы к сообщениям
Вы не можете скачивать файлы