Loading...
Error

Гибель империи (Византийский урок) (Ольга Савостьянова) [2008 г., документальный исторический фильм, DVD5]

Ответить на тему
Статистика раздачи
   
 
Автор Сообщение

stepan-frunze

Стаж: 9 лет 8 месяцев

Сообщений: 2563

Russia

post 17-Ноя-2013 19:33

[Цитировать] 

Гибель империи (Византийский урок)

pic
Год выпуска: 2008
Жанр: документальный исторический фильм
Продолжительность: 01:11:03+00:13:20+00

Режиссер: Ольга Савостьянова

Описание: Византия была одной из самых грандиозных цивилизаций в истории человечества. Ни одна другая империя не прожила так долго, как Византия. Она просуществовала 1120 лет. Баснословные богатства, красота и изысканность столицы империи - Константинополя - буквально потрясли европейские народы, находившиеся в период расцвета Византии в состоянии глубокого варварства. Византия была единственной в мире страной, простиравшейся на огромном пространстве между Европой и Азией, - уже эта география во многом определяла её уникальность. Очень важно, что Византия по природе своей была многонациональной имперской державой, в которой народ ощущал государство как одну из своих высших личных ценностей.

Так почему же стало возможным, что это великое и необычайно жизнеспособное государство с какого-то момента стремительно стало утрачивать жизненные силы? В фильме мы будем говорить именно о том внутреннем враге, который появился в духовных недрах византийского общества и сокрушил дух великого народа, сделав его беззащитной жертвой тех вызовов истории, на которые Византия уже не смогла ответить.

Дополнительная информация: Сканы в раздаче!

Сжатый в XviD

Качество: DVD5
Формат: DVD Video
Видео кодек: MPEG2
Аудио кодек: AC3
Видео:MPEG 2, 720x576 (4:3), 25.000 fps, 7 940 Kbps (0.766 bit/pixel)
Аудио:MP2, 48.0 KHz, 2 ch, 224 Kbps, CBR
скриншоты
pic pic pic pic

pic pic pic pic
MediaInfo
Общее
Полное имя : C:\На раздаче\Гибель империи Византийский урок\VIDEO_TS\VIDEO_TS.BUP
Формат : DVD Video
Профиль формата : Menu
Размер файла : 6,00 Кбайт
Режим общего битрейта : Переменный

Видео
Идентификатор : 224 (0xE0)
Формат : MPEG Video
Версия формата : Version 1
Вид битрейта : Переменный
Ширина : 720 пикселей
Высота : 480 пикселей
Соотношение сторон : 4:3
Частота кадров : 29,970 кадров/сек
Стандарт вещания : NTSC
Метод сжатия : С потерями

Общее
Полное имя : C:\На раздаче\Гибель империи Византийский урок\VIDEO_TS\VIDEO_TS.IFO
Формат : DVD Video
Профиль формата : Menu
Размер файла : 6,00 Кбайт
Режим общего битрейта : Переменный

Видео
Идентификатор : 224 (0xE0)
Формат : MPEG Video
Версия формата : Version 1
Вид битрейта : Переменный
Ширина : 720 пикселей
Высота : 480 пикселей
Соотношение сторон : 4:3
Частота кадров : 29,970 кадров/сек
Стандарт вещания : NTSC
Метод сжатия : С потерями

Общее
Полное имя : C:\На раздаче\Гибель империи Византийский урок\VIDEO_TS\VTS_01_0.BUP
Формат : DVD Video
Профиль формата : Program
Размер файла : 42,0 Кбайт
Продолжительность : 1 ч. 11 м.
Режим общего битрейта : Переменный
Общий поток : 81 бит/сек

Видео
Идентификатор : 224 (0xE0)
Формат : MPEG Video
Версия формата : Version 2
Продолжительность : 1 ч. 11 м.
Вид битрейта : Переменный
Ширина : 720 пикселей
Высота : 576 пикселей
Соотношение сторон : 4:3
Частота кадров : 25,000 кадров/сек
Стандарт вещания : PAL
Метод сжатия : С потерями

Аудио
Идентификатор : 0 (0x0)
Формат : MPEG Audio
Профиль формата : Version 1
Продолжительность : 1 ч. 11 м.
Каналы : 2 канала
Частота : 48,0 КГц
Метод сжатия : С потерями

Меню
Продолжительность : 1 ч. 11 м.
00:00:00.000 : Chapter 1
00:04:59.600 : Chapter 2
00:09:59.520 : Chapter 3
00:14:59.680 : Chapter 4
00:19:59.960 : Chapter 5
00:24:59.840 : Chapter 6
00:29:59.440 : Chapter 7
00:34:59.880 : Chapter 8
00:39:59.520 : Chapter 9
00:44:59.920 : Chapter 10
00:49:59.400 : Chapter 11
00:54:59.880 : Chapter 12
00:59:59.880 : Chapter 13
01:04:59.720 : Chapter 14
01:09:59.600 : Chapter 15
List (Audio) : 0

Общее
Полное имя : C:\На раздаче\Гибель империи Византийский урок\VIDEO_TS\VTS_01_0.IFO
Формат : DVD Video
Профиль формата : Program
Размер файла : 42,0 Кбайт
Продолжительность : 1 ч. 11 м.
Режим общего битрейта : Переменный
Общий поток : 81 бит/сек

Видео
Идентификатор : 224 (0xE0)
Формат : MPEG Video
Версия формата : Version 2
Продолжительность : 1 ч. 11 м.
Вид битрейта : Переменный
Ширина : 720 пикселей
Высота : 576 пикселей
Соотношение сторон : 4:3
Частота кадров : 25,000 кадров/сек
Стандарт вещания : PAL
Метод сжатия : С потерями

Аудио
Идентификатор : 0 (0x0)
Формат : MPEG Audio
Профиль формата : Version 1
Продолжительность : 1 ч. 11 м.
Каналы : 2 канала
Частота : 48,0 КГц
Метод сжатия : С потерями

Меню
Продолжительность : 1 ч. 11 м.
00:00:00.000 : Chapter 1
00:04:59.600 : Chapter 2
00:09:59.520 : Chapter 3
00:14:59.680 : Chapter 4
00:19:59.960 : Chapter 5
00:24:59.840 : Chapter 6
00:29:59.440 : Chapter 7
00:34:59.880 : Chapter 8
00:39:59.520 : Chapter 9
00:44:59.920 : Chapter 10
00:49:59.400 : Chapter 11
00:54:59.880 : Chapter 12
00:59:59.880 : Chapter 13
01:04:59.720 : Chapter 14
01:09:59.600 : Chapter 15
List (Audio) : 0

Общее
Полное имя : C:\На раздаче\Гибель империи Византийский урок\VIDEO_TS\VTS_01_1.VOB
Формат : MPEG-PS
Размер файла : 1024 Мбайт
Продолжительность : 17 м.
Общий поток : 8318 Кбит/сек

Видео
Идентификатор : 224 (0xE0)
Формат : MPEG Video
Версия формата : Version 2
Профиль формата : Main@Main
Параметр BVOP формата : Да
Параметр матрицы формата : Выборочная
Параметр GOP формата : M=3, N=15
Продолжительность : 17 м.
Битрейт : 7940 Кбит/сек
Ширина : 720 пикселей
Высота : 576 пикселей
Соотношение сторон : 4:3
Частота кадров : 25,000 кадров/сек
Стандарт вещания : PAL
Цветовое пространство : YUV
Субдискретизация насыщенности : 4:2:0
Битовая глубина : 8 бит
Тип развёртки : Чересстрочная
Порядок развёртки : Верхнее поле первое
Метод сжатия : С потерями
Бит/(Пиксели*Кадры) : 0.766
Временной код первого кадра : 00:00:00:00
Оригинал временного кода : Group of pictures header
Размер потока : 976 Мбайт (95%)

Аудио
Идентификатор : 192 (0xC0)
Формат : MPEG Audio
Версия формата : Version 1
Профиль формата : Layer 2
Продолжительность : 17 м.
Вид битрейта : Постоянный
Битрейт : 224 Кбит/сек
Каналы : 2 канала
Частота : 48,0 КГц
Метод сжатия : С потерями
Размер потока : 27,6 Мбайт (3%)

Меню

Общее
Полное имя : C:\На раздаче\Гибель империи Византийский урок\VIDEO_TS\VTS_01_2.VOB
Формат : MPEG-PS
Размер файла : 1024 Мбайт
Продолжительность : 17 м.
Общий поток : 8320 Кбит/сек

Видео
Идентификатор : 224 (0xE0)
Формат : MPEG Video
Версия формата : Version 2
Профиль формата : Main@Main
Параметр BVOP формата : Да
Параметр матрицы формата : Выборочная
Параметр GOP формата : M=3, N=15
Продолжительность : 17 м.
Битрейт : 7940 Кбит/сек
Ширина : 720 пикселей
Высота : 576 пикселей
Соотношение сторон : 4:3
Частота кадров : 25,000 кадров/сек
Стандарт вещания : PAL
Цветовое пространство : YUV
Субдискретизация насыщенности : 4:2:0
Битовая глубина : 8 бит
Тип развёртки : Чересстрочная
Порядок развёртки : Верхнее поле первое
Метод сжатия : С потерями
Бит/(Пиксели*Кадры) : 0.766
Временной код первого кадра : 00:17:12:15
Оригинал временного кода : Group of pictures header
Размер потока : 976 Мбайт (95%)

Аудио
Идентификатор : 192 (0xC0)
Формат : MPEG Audio
Версия формата : Version 1
Профиль формата : Layer 2
Продолжительность : 17 м.
Вид битрейта : Постоянный
Битрейт : 224 Кбит/сек
Каналы : 2 канала
Частота : 48,0 КГц
Метод сжатия : С потерями
Задержка видео : -96 мс.
Размер потока : 27,6 Мбайт (3%)

Меню

Общее
Полное имя : C:\На раздаче\Гибель империи Византийский урок\VIDEO_TS\VTS_01_3.VOB
Формат : MPEG-PS
Размер файла : 1024 Мбайт
Продолжительность : 17 м.
Общий поток : 8319 Кбит/сек

Видео
Идентификатор : 224 (0xE0)
Формат : MPEG Video
Версия формата : Version 2
Профиль формата : Main@Main
Параметр BVOP формата : Да
Параметр матрицы формата : Выборочная
Параметр GOP формата : M=3, N=15
Продолжительность : 17 м.
Битрейт : 7940 Кбит/сек
Ширина : 720 пикселей
Высота : 576 пикселей
Соотношение сторон : 4:3
Частота кадров : 25,000 кадров/сек
Стандарт вещания : PAL
Цветовое пространство : YUV
Субдискретизация насыщенности : 4:2:0
Битовая глубина : 8 бит
Тип развёртки : Чересстрочная
Порядок развёртки : Верхнее поле первое
Метод сжатия : С потерями
Бит/(Пиксели*Кадры) : 0.766
Временной код первого кадра : 00:34:25:02
Оригинал временного кода : Group of pictures header
Размер потока : 976 Мбайт (95%)

Аудио
Идентификатор : 192 (0xC0)
Формат : MPEG Audio
Версия формата : Version 1
Профиль формата : Layer 2
Продолжительность : 17 м.
Вид битрейта : Постоянный
Битрейт : 224 Кбит/сек
Каналы : 2 канала
Частота : 48,0 КГц
Метод сжатия : С потерями
Задержка видео : -168 мс.
Размер потока : 27,6 Мбайт (3%)

Меню

Общее
Полное имя : C:\На раздаче\Гибель империи Византийский урок\VIDEO_TS\VTS_01_4.VOB
Формат : MPEG-PS
Размер файла : 1024 Мбайт
Продолжительность : 17 м.
Общий поток : 8320 Кбит/сек

Видео
Идентификатор : 224 (0xE0)
Формат : MPEG Video
Версия формата : Version 2
Профиль формата : Main@Main
Параметр BVOP формата : Да
Параметр матрицы формата : Выборочная
Параметр GOP формата : M=3, N=15
Продолжительность : 17 м.
Битрейт : 7940 Кбит/сек
Ширина : 720 пикселей
Высота : 576 пикселей
Соотношение сторон : 4:3
Частота кадров : 25,000 кадров/сек
Стандарт вещания : PAL
Цветовое пространство : YUV
Субдискретизация насыщенности : 4:2:0
Битовая глубина : 8 бит
Тип развёртки : Чересстрочная
Порядок развёртки : Верхнее поле первое
Метод сжатия : С потерями
Бит/(Пиксели*Кадры) : 0.766
Временной код первого кадра : 00:51:37:13
Оригинал временного кода : Group of pictures header
Размер потока : 976 Мбайт (95%)

Аудио
Идентификатор : 192 (0xC0)
Формат : MPEG Audio
Версия формата : Version 1
Профиль формата : Layer 2
Продолжительность : 17 м.
Вид битрейта : Постоянный
Битрейт : 224 Кбит/сек
Каналы : 2 канала
Частота : 48,0 КГц
Метод сжатия : С потерями
Задержка видео : -48 мс.
Размер потока : 27,6 Мбайт (3%)

Меню

Общее
Полное имя : C:\На раздаче\Гибель империи Византийский урок\VIDEO_TS\VTS_01_5.VOB
Формат : MPEG-PS
Размер файла : 133 Мбайт
Продолжительность : 2 м. 13 с.
Общий поток : 8313 Кбит/сек

Видео
Идентификатор : 224 (0xE0)
Формат : MPEG Video
Версия формата : Version 2
Профиль формата : Main@Main
Параметр BVOP формата : Да
Параметр матрицы формата : Выборочная
Параметр GOP формата : M=3, N=15
Продолжительность : 2 м. 13 с.
Битрейт : 7940 Кбит/сек
Ширина : 720 пикселей
Высота : 576 пикселей
Соотношение сторон : 4:3
Частота кадров : 25,000 кадров/сек
Стандарт вещания : PAL
Цветовое пространство : YUV
Субдискретизация насыщенности : 4:2:0
Битовая глубина : 8 бит
Тип развёртки : Чересстрочная
Порядок развёртки : Верхнее поле первое
Метод сжатия : С потерями
Бит/(Пиксели*Кадры) : 0.766
Временной код первого кадра : 01:08:50:04
Оригинал временного кода : Group of pictures header
Размер потока : 126 Мбайт (95%)

Аудио
Идентификатор : 192 (0xC0)
Формат : MPEG Audio
Версия формата : Version 1
Профиль формата : Layer 2
Продолжительность : 2 м. 13 с.
Вид битрейта : Постоянный
Битрейт : 224 Кбит/сек
Каналы : 2 канала
Частота : 48,0 КГц
Метод сжатия : С потерями
Задержка видео : -88 мс.
Размер потока : 3,57 Мбайт (3%)

Меню
DVDinfo
Title: Гибель империи Византийский урок
Size: 4.13 Gb ( 4 330 076,00 KBytes ) - DVD-5
Enabled regions: 1, 2, 3, 4, 5, 6, 7, 8

VTS_01 :
Play Length: 01:11:03
Video: PAL 4:3 (720x576) VBR
Audio:
Not specified (MPEG1, 2 ch)

* Menus Information *

VIDEO_TS Menu
Video:
NTSC 4:3 (720x480) VBR
Auto Pan&Scan, Auto Letterboxed
Language Unit :


VTS_01 Menu
Video:
NTSC 4:3 (720x480) VBR
Auto Pan&Scan, Auto Letterboxed
Language Unit :
Chapter (PTT) Menu
pic
Download

Войдите на сайт, чтобы увидеть полную информацию.

Как скачивать  ·   Правила трекера



Последний раз редактировалось: stepan-frunze (2014-06-20 01:08), всего редактировалось 5 раз(а)
[Профиль]  [ЛС] 

stepan-frunze

Стаж: 9 лет 8 месяцев

Сообщений: 2563

Russia

post 20-Ноя-2013 00:48 (спустя 2 дня 5 часов)

[Цитировать] 

Прошу прощения за паузу . Были проблемы с инетом
pic


Последний раз редактировалось: stepan-frunze (2014-04-21 00:32), всего редактировалось 1 раз
[Профиль]  [ЛС] 

karmen1977

Стаж: 8 лет 2 месяца

Сообщений: 69

Откуда: Нижний Новгород

Russia

post 08-Янв-2014 18:00 (спустя 1 месяц 18 дней)

[Цитировать] 

Бог Спасёт!!!

_________________
Христос Воскресе!
[Профиль]  [ЛС] 

Anatol

Стаж: 8 лет 10 месяцев

Сообщений: 68

Откуда: Я из лесу вышел...

post 12-Авг-2014 15:31 (спустя 7 месяцев)

[Цитировать] 

Накатка и обложка на сайте обложки.нет Smile
[Профиль]  [ЛС] 

stepan-frunze

Стаж: 9 лет 8 месяцев

Сообщений: 2563

Russia

post 12-Авг-2014 23:10 (спустя 7 часов)

[Цитировать] 

вообщето обложка и накатка уже в раздаче
[Профиль]  [ЛС] 

Anatol

Стаж: 8 лет 10 месяцев

Сообщений: 68

Откуда: Я из лесу вышел...

post 13-Авг-2014 01:18 (спустя 2 часа 8 минут)

[Цитировать] 

Там другие, нам мой взгляд более профессиональные. Smile
[Профиль]  [ЛС] 

stepan-frunze

Стаж: 9 лет 8 месяцев

Сообщений: 2563

Russia

post 13-Авг-2014 23:31 (спустя 22 часа)

[Цитировать] 

Вот добавил
скрытый текст
picpic
[Профиль]  [ЛС] 

Анатолий Скурин

Стаж: 6 лет

Сообщений: 147

Russia

post 27-Авг-2018 16:03 (спустя 4 года)

[Цитировать] 

Спасибо!
[Профиль]  [ЛС] 
Показать сообщения:    
Ответить на тему

Текущее время: 20-Ноя 04:37

Часовой пояс: GMT + 4



Вы не можете начинать темы
Вы не можете отвечать на сообщения
Вы не можете редактировать свои сообщения
Вы не можете удалять свои сообщения
Вы не можете голосовать в опросах
Вы не можете прикреплять файлы к сообщениям
Вы не можете скачивать файлы