Loading...
Error

(Церковная музыка и церковные хоры (lossless).) «Двунадесятые праздники». "Воздвижение Честного и Животворящего Креста Господня". Иеродиакон Герман (Рябцев). (2 CD). - 2004, APE (image + .cue), lossless

Ответить на тему
Статистика раздачи
   
 
Автор Сообщение

СЕРГУЛЕТ

Стаж: 8 лет 8 месяцев

Сообщений: 2640

Откуда: LA ROMANA

Dominicanrep

post 15-Фев-2010 14:49

[Цитировать] 

«Двунадесятые праздники». "Воздвижение Честного и Животворящего Креста Господня". Иеродиакон Герман (Рябцев). (2 CD).

pic
Страна: Россия. Продюсерский центр Игоря Матвиенко.
Жанр: Церковная музыка и церковные хоры (lossless).
Год выпуска: 2004
Формат: APE (image + .cue)
Битрейт аудио: lossless
Продолжительность: 00:41:08+00:47:42
Трэклист:
ДИСК I
На вечерне:
1. «Господи, воззвах…» [с псалмами] (глас 6****)
2. Стихиры на «Господи, воззвах…» (глас 6*)
«Крест воздвизаем…»
«Моисей предобрази Тя…»
«Кресте Пречестный…»
3. «Слава, и ныне…» (глас 2*)
4. «Свете тихий…» (глас 2**)
5. Паремии
6. Стихира на стиховне «Радуйся, Живоносный Кресте…» (глас 5**)
На утрене:
7. «Бог Господь…» (глас 1****)
Тропарь праздника «Спаси, Господи, люди Твоя…» (глас 1**)
8. Полиелей (с псалмами)***
9. Величание **
10. Седален «В раи мя прежде древа обнажи…»
11. «От юности моея…» (глас 4***/****)
12. Чин Евангелия глас (4****)

ДИСК II
На утрене:
1. «Воскресение Христово видевшее…**»
2. Псалом 50
3. Стихира «Кресте Христов, христиан упование…» (глас 6**)
Канон глас 8*/**
4. Песнь 1, 3
5. Седален «В тебе, треблаженне и жизнодавче Кресте…»
6. Песнь 6
7. Кондак «Вознесыйся на Крест волею…» (глас 4**)
Икос «Иже до третьего небесе восхищен бысть в рай…»
8. Песнь 9
9. «Всякое дыхание…» (глас 8****)
10. Стихира на хвалитех «О Преславнаго чудесе…» (Киевский распев с исоном глас 8
11. «Слава, и ныне…» (глас 6**)

* знаменный распев
** знаменный распев с исоном
*** валаамский распев
**** валаамский распев с исоном
Дополнительная информация: Чтение Евангелия-иерей Ростислав Перебейнос.
Записано в домашней студии.
2003 год.
EAC log
Exact Audio Copy V0.99 prebeta 5 from 4. May 2009

Отчёт EAC об извлечении, выполненном 14. февраля 2010, 22:54

Иеродиакон Герман (Рябцев) / Воздвижение Честнаго и Животворящаго Креста Господня-1

Дисковод: ASUS DRW-2014L1T Adapter: 0 ID: 1

Режим чтения : Скоростной

Коррекция смещения при чтении : 6
Способность читать области Lead-in и Lead-out : Нет
Заполнение пропущенных сэмплов тишиной : Да
Удаление блоков с тишиной в начале и конце : Нет
При вычислениях CRC использовались нулевые сэмплы : Да
Интерфейс : Встроенный Win32-интерфейс для Win NT/2000

Выходной формат : Внутренние WAV-операции
Формат сэмплов : 44.100 Гц; 16 бит; стерео

TOC извлечённого CD

Трек | Старт | Длительность | Начальный сектор | Конечный сектор
---------------------------------------------------------------------
1 | 0:00.00 | 3:43.08 | 0 | 16732
2 | 3:43.08 | 10:51.63 | 16733 | 65620
3 | 14:34.71 | 4:15.73 | 65621 | 84818
4 | 18:50.69 | 3:04.26 | 84819 | 98644
5 | 21:55.20 | 6:29.74 | 98645 | 127893
6 | 28:25.19 | 2:39.31 | 127894 | 139849
7 | 31:04.50 | 3:14.60 | 139850 | 154459
8 | 34:19.35 | 6:02.20 | 154460 | 181629
9 | 40:21.55 | 0:53.01 | 181630 | 185605
10 | 41:14.56 | 0:38.72 | 185606 | 188527
11 | 41:53.53 | 0:55.05 | 188528 | 192657
12 | 42:48.58 | 4:53.61 | 192658 | 214693

Характеристики диапазона извлечения и сообщения об ошибках

Выбранный диапазон

Имя файла C:\Иеродиакон Герман (Рябцев) - Воздвижение Честнаго и Животворящаго Креста Господня-1.wav

Проблемы синхронизации 0:00:37

Пиковый уровень 95.8 %
CRC копии 9EF64575
Копирование завершено

Ошибок не произошло

Конец отчёта

cd2.
Exact Audio Copy V0.99 prebeta 5 from 4. May 2009

Отчёт EAC об извлечении, выполненном 14. февраля 2010, 23:00

Иеродиакон Герман (Рябцев) / Воздвижение Честнаго и Животворящаго Креста Господня-2

Дисковод: ASUS DRW-2014L1T Adapter: 0 ID: 1

Режим чтения : Скоростной

Коррекция смещения при чтении : 6
Способность читать области Lead-in и Lead-out : Нет
Заполнение пропущенных сэмплов тишиной : Да
Удаление блоков с тишиной в начале и конце : Нет
При вычислениях CRC использовались нулевые сэмплы : Да
Интерфейс : Встроенный Win32-интерфейс для Win NT/2000

Выходной формат : Внутренние WAV-операции
Формат сэмплов : 44.100 Гц; 16 бит; стерео

TOC извлечённого CD

Трек | Старт | Длительность | Начальный сектор | Конечный сектор
---------------------------------------------------------------------
1 | 0:00.00 | 2:05.57 | 0 | 9431
2 | 2:05.57 | 1:58.00 | 9432 | 18281
3 | 4:03.57 | 1:56.42 | 18282 | 27023
4 | 6:00.24 | 7:07.41 | 27024 | 59089
5 | 13:07.65 | 0:34.03 | 59090 | 61642
6 | 13:41.68 | 3:53.43 | 61643 | 79160
7 | 17:35.36 | 3:13.26 | 79161 | 93661
8 | 20:48.62 | 11:46.70 | 93662 | 146681
9 | 32:35.57 | 3:02.02 | 146682 | 160333
10 | 35:37.59 | 1:29.63 | 160334 | 167071
11 | 37:07.47 | 4:01.23 | 167072 | 185169

Характеристики диапазона извлечения и сообщения об ошибках

Выбранный диапазон

Имя файла C:\Иеродиакон Герман (Рябцев) - Воздвижение Честнаго и Животворящаго Креста Господня-2.wav

Проблемы синхронизации 0:00:38

Пиковый уровень 96.2 %
CRC копии 50D04FBA
Копирование завершено

Ошибок не произошло

Конец отчёта
Download

Войдите на сайт, чтобы увидеть полную информацию.

Как скачивать  ·   Правила трекера

[Профиль]  [ЛС] 

шульц54

Стаж: 4 года 5 месяцев

Сообщений: 6

Russia

post 04-Май-2013 21:10 (спустя 3 года 2 месяца)

[Цитировать] 

Спасибо.
[Профиль]  [ЛС] 

serpantin04

Стаж: 5 лет 11 месяцев

Сообщений: 84

Belarus

post 15-Июн-2014 13:37 (спустя 1 год 1 месяц)

[Цитировать] 

Не могу скачать,выбрасывает что ошибка - This is not a bencoded file.
[Профиль]  [ЛС] 

userilla

Стаж: 3 года 8 месяцев

Сообщений: 3

post 01-Авг-2014 18:14 (спустя 1 месяц 16 дней)

[Цитировать] 

у меня тоже ошибка вылетает.
[Профиль]  [ЛС] 

Dani49d

Стаж: 3 года 3 месяца

Сообщений: 1

Greece

post 21-Сен-2014 08:56 (спустя 1 месяц 19 дней)

[Цитировать] 

и у меня та же ошибка Sad
[Профиль]  [ЛС] 

Drona

Стаж: 3 года

Сообщений: 1

India

post 21-Сен-2014 17:36 (спустя 8 часов)

[Цитировать] 

таж фигня (((
[Профиль]  [ЛС] 

Gabi

Стаж: 3 года 3 месяца

Сообщений: 1

Russia

post 30-Окт-2014 18:09 (спустя 1 месяц 9 дней)

[Цитировать] 

Спасибо огромное! Smile
[Профиль]  [ЛС] 

mars1574

Стаж: 3 года 9 месяцев

Сообщений: 33

Russia

post 07-Окт-2017 14:01 (спустя 2 года 11 месяцев)

[Цитировать] 

Cпаси Гoспoди
[Профиль]  [ЛС] 
Показать сообщения:    
Ответить на тему

Текущее время: 19-Окт 02:03

Часовой пояс: GMT + 4



Вы не можете начинать темы
Вы не можете отвечать на сообщения
Вы не можете редактировать свои сообщения
Вы не можете удалять свои сообщения
Вы не можете голосовать в опросах
Вы не можете прикреплять файлы к сообщениям
Вы не можете скачивать файлы