Loading...
Error

(Церковная музыка и церковные хоры (lossless).) "Панихида по православным воинам". Иеродиакон Герман (Рябцев). (2CD). - 2004, APE (image + .cue), lossless

Ответить на тему
Статистика раздачи
   
 
Автор Сообщение

СЕРГУЛЕТ

Стаж: 11 лет

Сообщений: 2637

Откуда: LA ROMANA

Dominicanrep

post 18-Окт-2009 08:13

[Цитировать] 

"Панихида по православным воинам". Иеродиакон Герман (Рябцев). (2CD).

pic
Страна: Россия. Продюсерский центр Игоря Матвиенко.
Жанр: Церковная музыка и церковные хоры (lossless).
Год выпуска: 2004
Формат: APE (image + .cue)
Битрейт аудио: lossless
Продолжительность: 00:43:43+00:42:19
Трэклист:
ДИСК I
1. Начало обычное
2. Псалом 90
3. Заупокойная ектения*
4. Аллилуиа (глас 8***)
5. Тропарь «Глубиною мудрости…»
Богородичен «Тебе и стену и прибежище…» (глас 8***)
6. Непорочны на 2 статии***
7. Тропари** «Святых лик…»
«Агнца Божия проповедавше…»
«В путь узкий хождшии прискорбный…»
«Образ есмь неизреченныя Твоея славы…»
«Древле убо от не сущих создавый мя…»
«Упокой, Боже, раба Твоего…»
Троичен: «Трисиятельное единаго Божества…»
Богородичен: «Радуйся, Чистая…»
8. Малая ектения**
9. Седален «Покой, Спасе наш…» (глас 5*)

ДИСК II
1. Псалом 50
Канон из последования об усопших (глас 3) [ирмосы*, запевы****]
2. Песнь 1, 3
3. Седален «Воистину суета всяческая…» (глас 6****)
4. Песнь 4, 5, 6
5. Кондак «Со святыми упокой…» (глас 8**)
Икос «Сам един еси безсмертный…»
6. Песнь 7, 8, 9
7. Задостойник*
8. Трисвятое по Отче наш
9. Тропари (глас 4)
«Со духи праведных…»
«В покоищи Твоем, Господи…»
«Ты еси Бог сошедый во ад…»
Богородичен: «Едина чистая и непорочная Дево…»
10. Сугубая ектения*
11. Отпуст****
12. Вечная память****

* знаменная монодия
** знаменный распев с исоном
*** Валаамский распев с исоном
**** обиходная монодия
EAC log
Exact Audio Copy V0.99 prebeta 5 from 4. May 2009

Отчёт EAC об извлечении, выполненном 17. октября 2009, 22:39

иеродиакон Герман / Панихида по православным воинам (диск 1)

Дисковод: ASUS BC-1205PT Adapter: 1 ID: 0

Режим чтения : Достоверность
Использование точного потока : Да
Отключение кэша аудио : Да
Использование указателей C2 : Нет

Коррекция смещения при чтении : 667
Способность читать области Lead-in и Lead-out : Нет
Заполнение пропущенных сэмплов тишиной : Да
Удаление блоков с тишиной в начале и конце : Нет
При вычислениях CRC использовались нулевые сэмплы : Да
Интерфейс : Встроенный Win32-интерфейс для Win NT/2000

Выходной формат : Внутренние WAV-операции
Формат сэмплов : 44.100 Гц; 16 бит; стерео

TOC извлечённого CD

Трек | Старт | Длительность | Начальный сектор | Конечный сектор
---------------------------------------------------------------------
1 | 0:00.00 | 2:41.65 | 0 | 12139
2 | 2:41.65 | 1:48.47 | 12140 | 20286
3 | 4:30.37 | 4:38.30 | 20287 | 41166
4 | 9:08.67 | 0:55.65 | 41167 | 45356
5 | 10:04.57 | 2:58.72 | 45357 | 58778
6 | 13:03.54 | 19:46.38 | 58779 | 147766
7 | 32:50.17 | 6:09.23 | 147767 | 175464
8 | 38:59.40 | 1:53.41 | 175465 | 183980
9 | 40:53.06 | 2:47.69 | 183981 | 196574

Характеристики диапазона извлечения и сообщения об ошибках

Выбранный диапазон

Имя файла C:\иеродиакон Герман - Панихида по православным воинам (диск 1).wav

Пиковый уровень 98.8 %
Качество диапазона 99.9 %
CRC копии 399E404A
Копирование... OK

Ошибок не произошло

CD2.
Exact Audio Copy V0.99 prebeta 5 from 4. May 2009

Отчёт EAC об извлечении, выполненном 17. октября 2009, 23:00

иеродиакон Герман / Панихида по православным воинам (диск 2)

Дисковод: ASUS BC-1205PT Adapter: 1 ID: 0

Режим чтения : Достоверность
Использование точного потока : Да
Отключение кэша аудио : Да
Использование указателей C2 : Нет

Коррекция смещения при чтении : 667
Способность читать области Lead-in и Lead-out : Нет
Заполнение пропущенных сэмплов тишиной : Да
Удаление блоков с тишиной в начале и конце : Нет
При вычислениях CRC использовались нулевые сэмплы : Да
Интерфейс : Встроенный Win32-интерфейс для Win NT/2000

Выходной формат : Внутренние WAV-операции
Формат сэмплов : 44.100 Гц; 16 бит; стерео

TOC извлечённого CD

Трек | Старт | Длительность | Начальный сектор | Конечный сектор
---------------------------------------------------------------------
1 | 0:00.00 | 1:57.72 | 0 | 8846
2 | 1:57.72 | 6:58.68 | 8847 | 40264
3 | 8:56.65 | 1:22.52 | 40265 | 46466
4 | 10:19.42 | 8:55.36 | 46467 | 86627
5 | 19:15.03 | 3:50.69 | 86628 | 103946
6 | 23:05.72 | 7:28.67 | 103947 | 137613
7 | 30:34.64 | 1:27.52 | 137614 | 144190
8 | 32:02.41 | 1:27.38 | 144191 | 150753
9 | 33:30.04 | 2:42.40 | 150754 | 162943
10 | 36:12.44 | 2:36.55 | 162944 | 174698
11 | 38:49.24 | 1:28.20 | 174699 | 181318
12 | 40:17.44 | 1:59.72 | 181319 | 190315

Характеристики диапазона извлечения и сообщения об ошибках

Выбранный диапазон

Имя файла C:\иеродиакон Герман - Панихида по православным воинам (диск 2).wav

Пиковый уровень 98.8 %
Качество диапазона 100.0 %
CRC копии C76ED8F7
Копирование... OK

Ошибок не произошло
Конец отчёта
Download

Войдите на сайт, чтобы увидеть полную информацию.

Как скачивать  ·   Правила трекера

[Профиль]  [ЛС] 

potemkin11

Стаж: 9 лет

Сообщений: 42

Belarus

post 14-Янв-2011 22:03 (спустя 1 год 2 месяца)

[Цитировать] 

Спаси Господи!!!
[Профиль]  [ЛС] 

Людмила1967

Стаж: 7 лет 5 месяцев

Сообщений: 6

Kazakhstan

post 29-Авг-2012 16:42 (спустя 1 год 7 месяцев)

[Цитировать] 

Спаси Господи! здоровья всем православным да и всем на Земле! Как раз сегодня годовщина со дня смерти моего папы раба Божия Николая...
[Профиль]  [ЛС] 

serpantin04

Стаж: 8 лет 3 месяца

Сообщений: 84

Belarus

post 15-Июн-2014 13:14 (спустя 1 год 9 месяцев)

[Цитировать] 

Спасибо.
[Профиль]  [ЛС] 

Иван Владимирович

Стаж: 11 дней

Сообщений: 47

Russia

post 13-Фев-2020 11:22 (спустя 5 лет 7 месяцев)

[Цитировать] 

Постдируйте, ребят!!
[Профиль]  [ЛС] 
Показать сообщения:    
Ответить на тему

Текущее время: 20-Фев 08:35

Часовой пояс: GMT + 4



Вы не можете начинать темы
Вы не можете отвечать на сообщения
Вы не можете редактировать свои сообщения
Вы не можете удалять свои сообщения
Вы не можете голосовать в опросах
Вы не можете прикреплять файлы к сообщениям
Вы не можете скачивать файлы