Loading...
Error

(Церковная музыка и церковные хоры (lossless).) "Последование Страстей Господних". Иеродиакон Герман (Рябцев). (2CD).- 2000, APE (image + .cue), lossless

Ответить на тему
Статистика раздачи
   
 
Автор Сообщение

СЕРГУЛЕТ

Стаж: 11 лет

Сообщений: 2637

Откуда: LA ROMANA

Dominicanrep

post 19-Окт-2009 21:49

[Цитировать] 

"Последование Страстей Господних". Иеродиакон Герман (Рябцев). (2CD).

pic
Страна: Россия. Продюсерский центр Игоря Матвиенко.
Жанр: Церковная музыка и церковные хоры (lossless).
Год выпуска: 2000
Формат: APE (image + .cue)
Битрейт аудио: lossless
Продолжительность: 01:09:59+01:11:58
Трэклист:
диск 1
1. Тропарь «Егда славнии ученицы» (глас 8
2. Первое Евангелие (Ин. зач. 46 – в сокращении) – о. Игумен (Архимандрит Панкратий)
3. 1-й Антифон (глас 8
4. 2-й Антифон (глас 6)
5. 3-й Антифон (глас 2)
6. Второе Евангелие (Ин. зач. 58) – иеромонах Геронтий
7. 4-й Антифон (глас 5/глас 1)
8. 5-й Антифон (глас 6)
9. 6-й Антифон (глас 7)
10. Третье Евангелие (Мф. зач. 109) – иеромонах Антипа
11. 7-й Антифон (глас 8
12. 8-й Антифон (глас 2)
13. 9-й Антифон (глас 3)
14. Четвертое Евангелие (Ин. зач. 59) – иеромонах Корнилий
15. 10-й Антифон (глас 6)
16. 11-й Антифон (глас 6)

диск 2
1. 12-й Антифон (глас 8
2. Пятое Евангелие (Мф. зач. 111) – иеромонах Даниил
3. 13-й Антифон (глас 6)
4. 14-й Антифон (глас 8
5. 15-й Антифон (глас 6)
6. Шестое Евангелие (Мк. зач. 67) – иеромонах Мефодий
7. Блаженны (глас 4)
8. Седьмое Евангелие (Мф. зач. 113) – иеромонах Гедеон
9. Псалом 50
10. Восьмое Евангелие (Лк. зач. 111) – иеромонах Арсений
11. Трипеснец, Песнь 5 и 9 (глас 6)
12. Светилен (глас 6)
13. Девятое Евангелие (Ин. зач. 65) – иеромонах Викторин
14. Стихиры на стиховне (глас 3)
15. Десятое Евангелие (Мк. зач. 69) – иеромонах Гурий
16. Славословие
17. Одиннадцатое Евангелие (Ин. зач. 62) – иеромонах Геронтий
18. Стихиры на стиховне (глас 2)
19. Двенадцатое Евангелие (Мф. зач. 114) – о. Игумен (Архимандрит Панкратий)
Дополнительная информация: Вы, конечно, слышали, что есть в Православной Церкви богослужение, которое называется 12 Евангелий. Как же так? – спросите вы. – Ведь Евангелий всего четыре. Дело в том, что во время этого торжественного и печального богослужения читаются 12 отрывков из евангельских повествований, в которых вспоминаются последние часы земной жизни Спасителя, а между евангельскими отрывками поются антифоны – песнопения, передающие смысл и значение подвига Христа Спасителя.

Прослушав весь диск, вы словно побываете на этом богослужении, которое совершается всего один раз в году – вечером в Великий четверг.
EAC log
Exact Audio Copy V0.99 prebeta 5 from 4. May 2009

Отчёт EAC об извлечении, выполненном 18. октября 2009, 9:31

Иеродиакон Герман (Рябцев) / Последование Страстей Господних (1)

Дисковод: ASUS BC-1205PT Adapter: 1 ID: 0

Режим чтения : Достоверность
Использование точного потока : Да
Отключение кэша аудио : Да
Использование указателей C2 : Нет

Коррекция смещения при чтении : 667
Способность читать области Lead-in и Lead-out : Нет
Заполнение пропущенных сэмплов тишиной : Да
Удаление блоков с тишиной в начале и конце : Нет
При вычислениях CRC использовались нулевые сэмплы : Да
Интерфейс : Встроенный Win32-интерфейс для Win NT/2000

Выходной формат : Внутренние WAV-операции
Формат сэмплов : 44.100 Гц; 16 бит; стерео

TOC извлечённого CD

Трек | Старт | Длительность | Начальный сектор | Конечный сектор
---------------------------------------------------------------------
1 | 0:00.00 | 3:03.06 | 0 | 13730
2 | 3:03.06 | 9:09.26 | 13731 | 54931
3 | 12:12.32 | 5:29.17 | 54932 | 79623
4 | 17:41.49 | 2:34.37 | 79624 | 91210
5 | 20:16.11 | 2:34.19 | 91211 | 102779
6 | 22:50.30 | 5:18.19 | 102780 | 126648
7 | 28:08.49 | 5:20.51 | 126649 | 150699
8 | 33:29.25 | 3:16.03 | 150700 | 165402
9 | 36:45.28 | 5:46.02 | 165403 | 191354
10 | 42:31.30 | 4:06.62 | 191355 | 209866
11 | 46:38.17 | 4:37.65 | 209867 | 230706
12 | 51:16.07 | 4:35.20 | 230707 | 251351
13 | 55:51.27 | 1:39.58 | 251352 | 258834
14 | 57:31.10 | 5:37.09 | 258835 | 284118
15 | 63:08.19 | 3:26.28 | 284119 | 299596
16 | 66:34.47 | 3:22.73 | 299597 | 314819

Характеристики диапазона извлечения и сообщения об ошибках

Выбранный диапазон

Имя файла C:\Иеродиакон Герман (Рябцев) - Последование Страстей Господних (1).wav

Пиковый уровень 100.0 %
Качество диапазона 100.0 %
CRC копии DFDCAB23
Копирование... OK

Ошибок не произошло

CD2.
Exact Audio Copy V0.99 prebeta 5 from 4. May 2009

Отчёт EAC об извлечении, выполненном 18. октября 2009, 9:44

Иеродиакон Герман (Рябцев) / Последование Страстей Господних (2)

Дисковод: ASUS BC-1205PT Adapter: 1 ID: 0

Режим чтения : Достоверность
Использование точного потока : Да
Отключение кэша аудио : Да
Использование указателей C2 : Нет

Коррекция смещения при чтении : 667
Способность читать области Lead-in и Lead-out : Нет
Заполнение пропущенных сэмплов тишиной : Да
Удаление блоков с тишиной в начале и конце : Нет
При вычислениях CRC использовались нулевые сэмплы : Да
Интерфейс : Встроенный Win32-интерфейс для Win NT/2000

Выходной формат : Внутренние WAV-операции
Формат сэмплов : 44.100 Гц; 16 бит; стерео

TOC извлечённого CD

Трек | Старт | Длительность | Начальный сектор | Конечный сектор
---------------------------------------------------------------------
1 | 0:00.00 | 7:16.00 | 0 | 32699
2 | 7:16.00 | 4:41.19 | 32700 | 53793
3 | 11:57.19 | 1:38.18 | 53794 | 61161
4 | 13:35.37 | 1:44.25 | 61162 | 68986
5 | 15:19.62 | 7:14.55 | 68987 | 101591
6 | 22:34.42 | 3:04.04 | 101592 | 115395
7 | 25:38.46 | 7:20.38 | 115396 | 148433
8 | 32:59.09 | 4:06.15 | 148434 | 166898
9 | 37:05.24 | 1:30.73 | 166899 | 173721
10 | 38:36.22 | 3:53.07 | 173722 | 191203
11 | 42:29.29 | 5:40.03 | 191204 | 216706
12 | 48:09.32 | 0:49.15 | 216707 | 220396
13 | 48:58.47 | 2:56.65 | 220397 | 233661
14 | 51:55.37 | 3:07.25 | 233662 | 247711
15 | 55:02.62 | 1:46.47 | 247712 | 255708
16 | 56:49.34 | 2:04.41 | 255709 | 265049
17 | 58:54.00 | 1:37.34 | 265050 | 272358
18 | 60:31.34 | 9:29.37 | 272359 | 315070
19 | 70:00.71 | 1:55.48 | 315071 | 323743

Характеристики диапазона извлечения и сообщения об ошибках

Выбранный диапазон

Имя файла C:\Иеродиакон Герман (Рябцев) - Последование Страстей Господних (2).wav

Пиковый уровень 85.8 %
Качество диапазона 100.0 %
CRC копии 02D017D8
Копирование... OK

Ошибок не произошло
Конец отчёта
Download

Войдите на сайт, чтобы увидеть полную информацию.

Как скачивать  ·   Правила трекера



Последний раз редактировалось: СЕРГУЛЕТ (2011-07-10 10:55), всего редактировалось 1 раз
[Профиль]  [ЛС] 

Странник1

Стаж: 10 лет

Сообщений: 2307

Russia

post 18-Авг-2010 12:16 (спустя 9 месяцев)

[Цитировать] 

Спасибо...
[Профиль]  [ЛС] 

Владимир Лухов

Стаж: 9 лет 5 месяцев

Сообщений: 110

Откуда: Саратов

Russia

post 27-Ноя-2010 02:47 (спустя 3 месяца 8 дней)

[Цитировать] 

Благодарю.

_________________
С уважением. Владимир.
[Профиль]  [ЛС] 

CEPBEP4

Стаж: 8 лет 11 месяцев

Сообщений: 149

Откуда: ОРЕНБУРГ

Russia

post 03-Май-2012 13:04 (спустя 1 год 5 месяцев)

[Цитировать] 

Спаси Господи!

_________________
pic
pic 100 Мбит/с pic 100 Мбит/с pic
[Профиль]  [ЛС] 

4x4Runner

Стаж: 6 лет 11 месяцев

Сообщений: 15

post 10-Мар-2014 10:14 (спустя 1 год 10 месяцев)

[Цитировать] 

Премного благодарен
[Профиль]  [ЛС] 

serpantin04

Стаж: 8 лет 3 месяца

Сообщений: 84

Belarus

post 15-Июн-2014 13:10 (спустя 3 месяца 5 дней)

[Цитировать] 

Спасибо.
[Профиль]  [ЛС] 

0304mel

Стаж: 6 лет 9 месяцев

Сообщений: 111

Russia

post 20-Окт-2014 20:27 (спустя 4 месяца 5 дней)

[Цитировать] 

Спаси БОГ.
[Профиль]  [ЛС] 

Иван Владимирович

Стаж: 15 дней

Сообщений: 47

Russia

post 13-Фев-2020 02:34 (спустя 5 лет 3 месяца)

[Цитировать] 

Встаньте на раздачу пожалуйста!
[Профиль]  [ЛС] 
Показать сообщения:    
Ответить на тему

Текущее время: 24-Фев 07:07

Часовой пояс: GMT + 4



Вы не можете начинать темы
Вы не можете отвечать на сообщения
Вы не можете редактировать свои сообщения
Вы не можете удалять свои сообщения
Вы не можете голосовать в опросах
Вы не можете прикреплять файлы к сообщениям
Вы не можете скачивать файлы