Loading...
Error

(Церковная музыка и церковные хоры (lossless)) "Страстная Седмица и Цветная Триодь". Регент братского хора Валаамского монастыря иеродиакон Герман (Рябцев). - 1999, APE (image + .cue), lossless

Ответить на тему
Статистика раздачи
   
 
Автор Сообщение

СЕРГУЛЕТ

Стаж: 11 лет

Сообщений: 2637

Откуда: LA ROMANA

Dominicanrep

post 20-Окт-2009 22:04

[Цитировать] 

"Страстная Седмица и Цветная Триодь". Регент братского хора Валаамского монастыря иеродиакон Герман (Рябцев).

pic
Страна: Россия. Продюсерский центр Игоря Матвиенко.
Жанр: Церковная музыка и церковные хоры (lossless)
Год выпуска: 1999
Формат: APE (image + .cue)
Битрейт аудио: lossless
Продолжительность: 00:59:59
Трэклист:
СТРАСТНАЯ СЕДМИЦА
НЕДЕЛЯ ВАИЙ
1. Тропарь (глас 4)
2. 1-я стихира на Господи воззвах (глас 6)
3. Слава, и ныне, на литии (глас 3)
4. Величание
5. Кондак (глас 6)
В ТОТ ЖЕ ДЕНЬ НА ВЕЧЕРНЕ
6. И ныне, на стиховне (глас 3)
ВЕЛИКИЙ ПОНЕДЕЛЬНИК
7. Аллилуиа и тропарь (глас 8
8. Светилен
ВЕЛИКИЙ ВТОРНИК
9. Слава, и ныне, на Хвалитех (глас 4)
ВЕЛИКАЯ СРЕДА
10. И ныне, на Хвалитех (глас 6)
ВЕЛИКИЙ ЧЕТВЕРТОК
11. Тропарь (глас 8
12. Ирмос 9-ой песни
13. Вечери твоея (глас 8
ВЕЛИКИЙ ПЯТОК
14. По 11-ом Евангелии, стихира (глас 1)
15. На 1-ом Часе, тропарь (глас 8
ВЕЛИКАЯ СУББОТА
16. Непорочны с похвалы (1-я статия)
17. Припевы на паремиях

ЦВЕТНАЯ ТРИОДЬ
ПАСХА
1. Тропарь
2. 4-я стихира (глас 5)
3. Задостойник
НЕДЕЛЯ ФОМИНА
4. Слава, и ныне, на литии (глас 8
5. Тропарь (глас 7)
НЕДЕЛЯ 3-я ПО ПАСХЕ
6. На литии, слава (глас 6)
7. Экзапостиларий
НЕДЕЛЯ 4-я ПО ПАСХЕ
8. 2-я стихира на Господи воззвах (глас 1)
ПРЕПОЛОВЕНИЕ
9. Тропарь (глас 8
10. Кондак (глас 6)
НЕДЕЛЯ 5-я ПО ПАСХЕ
11. Стихира на Хвалитех (глас 6)
НЕДЕЛЯ 6-я ПО ПАСХЕ
12. На литии, слава (глас 4)
ВОЗНЕСЕНИЕ ГОСПОДНЕ
13. 3-я стихира на Господи воззвах (глас 6)
14. Тропарь (глас 4)
15. Величание
16. Кондак (глас 6)
НЕДЕЛЯ СВЯТЫХ ОТЕЦ
17. 2-я Стихира на Господи воззвах (глас 6)
НЕДЕЛЯ ПЯТИДЕСЯТНИЦЫ
18. 1-я стихира на Господи воззвах (глас 1)
19. Тропарь (глас 8
20. Кондак (глас 8
НЕДЕЛЯ ВСЕХ СВЯТЫХ
21. Тропарь (глас 4)
Дополнительная информация: Неделя Ваий или Вербное Воскресение — это праздник Входа Господня в Иерусалим, т.е. добровольного прихода Спасителя на страдание и смерть. Встреченный как Царь и Владыка, Он через несколько дней будет осужден на смерть и распят на кресте. Этим евангельским событиям и посвящены песнопения первой части диска.

Во второй части представлены песнопения из Цветной Триоди — периода церковных богослужений от Пасхи до Недели Всех Святых. Слушателям будут особенно интересны эти праздничные песнопения, исполненные в непривычно строгой и сдержанной манере.

Записано в Никольском скиту Валаамского монастыря.
EAC log
Exact Audio Copy V0.99 prebeta 5 from 4. May 2009

Отчёт EAC об извлечении, выполненном 20. октября 2009, 18:29

Иеродиакон Герман (Рябцев) / Страстная седмица и Цветная триодь

Дисковод: ASUS BC-1205PT Adapter: 1 ID: 0

Режим чтения : Достоверность
Использование точного потока : Да
Отключение кэша аудио : Да
Использование указателей C2 : Нет

Коррекция смещения при чтении : 667
Способность читать области Lead-in и Lead-out : Нет
Заполнение пропущенных сэмплов тишиной : Да
Удаление блоков с тишиной в начале и конце : Нет
При вычислениях CRC использовались нулевые сэмплы : Да
Интерфейс : Встроенный Win32-интерфейс для Win NT/2000

Выходной формат : Внутренние WAV-операции
Формат сэмплов : 44.100 Гц; 16 бит; стерео

TOC извлечённого CD

Трек | Старт | Длительность | Начальный сектор | Конечный сектор
---------------------------------------------------------------------
1 | 0:00.00 | 1:10.28 | 0 | 5277
2 | 1:10.28 | 1:07.41 | 5278 | 10343
3 | 2:17.69 | 2:41.62 | 10344 | 22480
4 | 4:59.56 | 0:53.49 | 22481 | 26504
5 | 5:53.30 | 1:09.60 | 26505 | 31739
6 | 7:03.15 | 1:43.52 | 31740 | 39516
7 | 8:46.67 | 2:28.34 | 39517 | 50650
8 | 11:15.26 | 1:39.16 | 50651 | 58091
9 | 12:54.42 | 0:57.42 | 58092 | 62408
10 | 13:52.09 | 1:51.17 | 62409 | 70750
11 | 15:43.26 | 2:23.49 | 70751 | 81524
12 | 18:07.00 | 1:12.39 | 81525 | 86963
13 | 19:19.39 | 2:40.19 | 86964 | 98982
14 | 21:59.58 | 1:21.45 | 98983 | 105102
15 | 23:21.28 | 1:04.74 | 105103 | 109976
16 | 24:26.27 | 4:13.44 | 109977 | 128995
17 | 28:39.71 | 0:57.54 | 128996 | 133324
18 | 29:37.50 | 0:35.14 | 133325 | 135963
19 | 30:12.64 | 1:46.36 | 135964 | 143949
20 | 31:59.25 | 2:12.25 | 143950 | 153874
21 | 34:11.50 | 1:51.55 | 153875 | 162254
22 | 36:03.30 | 1:01.30 | 162255 | 166859
23 | 37:04.60 | 1:34.41 | 166860 | 173950
24 | 38:39.26 | 1:42.27 | 173951 | 181627
25 | 40:21.53 | 1:59.64 | 181628 | 190616
26 | 42:21.42 | 1:17.70 | 190617 | 196461
27 | 43:39.37 | 1:34.48 | 196462 | 203559
28 | 45:14.10 | 1:24.43 | 203560 | 209902
29 | 46:38.53 | 1:16.28 | 209903 | 215630
30 | 47:55.06 | 1:29.35 | 215631 | 222340
31 | 49:24.41 | 1:11.44 | 222341 | 227709
32 | 50:36.10 | 0:53.67 | 227710 | 231751
33 | 51:30.02 | 1:33.01 | 231752 | 238727
34 | 53:03.03 | 2:02.25 | 238728 | 247902
35 | 55:05.28 | 1:14.43 | 247903 | 253495
36 | 56:19.71 | 1:03.36 | 253496 | 258256
37 | 57:23.32 | 1:09.74 | 258257 | 263505
38 | 58:33.31 | 1:23.71 | 263506 | 269801

Характеристики диапазона извлечения и сообщения об ошибках

Выбранный диапазон

Имя файла C:\Иеродиакон Герман (Рябцев) - Страстная седмица и Цветная триодь.wav

Пиковый уровень 100.0 %
Качество диапазона 100.0 %
CRC копии 953B733C
Копирование... OK

Ошибок не произошло
Конец отчёта
Download

Войдите на сайт, чтобы увидеть полную информацию.

Как скачивать  ·   Правила трекера



Последний раз редактировалось: СЕРГУЛЕТ (2011-07-10 11:01), всего редактировалось 1 раз
[Профиль]  [ЛС] 

Ilitch

Стаж: 11 лет

Сообщений: 18

Откуда: Кострома

Russia

post 15-Янв-2011 13:23 (спустя 1 год 2 месяца)

[Цитировать] 

Спасибо!
[Профиль]  [ЛС] 

Idealist

Стаж: 8 лет 10 месяцев

Сообщений: 58

Russia

post 15-Ноя-2011 14:30 (спустя 10 месяцев)

[Цитировать] 

Мощь! Спаси, Господи, Сергулет!
[Профиль]  [ЛС] 

Игорь Шкляр

Стаж: 8 лет 10 месяцев

Сообщений: 7

Откуда: Екатеринбург

Russia

post 29-Ноя-2011 13:10 (спустя 13 дней)

[Цитировать] 

Спаси, Господи!
[Профиль]  [ЛС] 

gavrik.s

Стаж: 8 лет 1 месяц

Сообщений: 85

post 25-Мар-2012 15:37 (спустя 3 месяца 26 дней)

[Цитировать] 

Высокое качество звука!Спасибо!
Молятся,не просто поют.
[Профиль]  [ЛС] 

Ggaz

Стаж: 7 лет 10 месяцев

Сообщений: 2

Russia

post 08-Апр-2012 05:49 (спустя 13 дней)

[Цитировать] 

Здравствуйте, встаньте кто - нибудь на сид пожалуйста
[Профиль]  [ЛС] 

Владимир Лухов

Стаж: 9 лет 5 месяцев

Сообщений: 110

Откуда: Саратов

Russia

post 12-Апр-2012 22:52 (спустя 4 дня)

[Цитировать] 

Спасибо.
Иеродиакон Герман - просто ангельский речетатив. Прослушал многие произведения в его исполнение. Советую - Псалтырь, правило ко причащению.

_________________
С уважением. Владимир.
[Профиль]  [ЛС] 

shymsknik

Стаж: 9 лет 1 месяц

Сообщений: 182

Russia

post 18-Апр-2012 15:33 (спустя 5 дней)

[Цитировать] 

Мощь! Спаси, Господи, Сергулет!
[Профиль]  [ЛС] 

Андрей126

Стаж: 6 лет 4 месяца

Сообщений: 19

Russia

post 17-Мар-2014 20:48 (спустя 1 год 10 месяцев)

[Цитировать] 

Сам стою на клиросе. Знаю, что такое молитва на клиросе. Здесь молитва!
[Профиль]  [ЛС] 

serpantin04

Стаж: 8 лет 3 месяца

Сообщений: 84

Belarus

post 15-Июн-2014 13:05 (спустя 2 месяца 28 дней)

[Цитировать] 

Благодарю.
[Профиль]  [ЛС] 

0304mel

Стаж: 6 лет 8 месяцев

Сообщений: 111

Russia

post 20-Окт-2014 20:30 (спустя 4 месяца 5 дней)

[Цитировать] 

Надеюсь на удачную загрузку, а Вам спасибо.
[Профиль]  [ЛС] 

Иван Владимирович

Стаж: 11 дней

Сообщений: 47

Russia

post 08-Фев-2020 13:27 (спустя 5 лет 3 месяца)

[Цитировать] 

Откройте пожалуйста раздачу!))
[Профиль]  [ЛС] 

Иван Владимирович

Стаж: 11 дней

Сообщений: 47

Russia

post 08-Фев-2020 20:09 (спустя 6 часов)

[Цитировать] 

Пожалуйста, откройте раздачу)
[Профиль]  [ЛС] 

Иван Владимирович

Стаж: 11 дней

Сообщений: 47

Russia

post 11-Фев-2020 18:16 (спустя 2 дня 22 часа)

[Цитировать] 

Встаньте на раздачу, прошу
[Профиль]  [ЛС] 
Показать сообщения:    
Ответить на тему

Текущее время: 20-Фев 10:14

Часовой пояс: GMT + 4



Вы не можете начинать темы
Вы не можете отвечать на сообщения
Вы не можете редактировать свои сообщения
Вы не можете удалять свои сообщения
Вы не можете голосовать в опросах
Вы не можете прикреплять файлы к сообщениям
Вы не можете скачивать файлы