Loading...
Error

(Церковная музыка и церковные хоры (lossless).) "Благословенная Суббота". Регент братского хора Валаамского монастыря иеродиакон Герман (Рябцев). - 1999, APE (image + .cue), lossless

Ответить на тему
Статистика раздачи
   
 
Автор Сообщение

СЕРГУЛЕТ

Стаж: 11 лет

Сообщений: 2637

Откуда: LA ROMANA

Dominicanrep

post 20-Окт-2009 22:31

[Цитировать] 

"Благословенная Суббота". Регент братского хора Валаамского монастыря иеродиакон Герман (Рябцев).

pic
Страна: Россия. Продюсерский центр Игоря Матвиенко.
Жанр: Церковная музыка и церковные хоры (lossless).
Год выпуска: 1999
Формат: APE (image + .cue)
Битрейт аудио: lossless
Продолжительность: 01:09:27
Трэклист:
1. Благообразный Иосиф (болгарский распев)
Непорочны с похвалы (греческий распев)
2. 1-я статия
3. 2-я статия
4. 3-я статия
5. Ангельский собор (византийский распев)
6. Волною морскою (глас 6, знаменный распев)
7. Kumati qalashz (византийский распев)
8. Не рыдай мене, мати (глас 6, знаменный распев)
9. Приидите ублажим Иосифа (болгарский распев)
10. Славник на Хвалитех (глас 8, знаменный распев)
11. Стихира на Господи воззвах (глас 6, знаменный распев)
12. Воскресни, Боже (знаменный распев)
13. Да молчит всякая плоть (византийский распев)
14. Причастен (знаменный распев)
15. Трисвятое (валаамский распев)
Дополнительная информация: Вечером накануне Страстной субботы, иначе называемой Благословенной, совершается чин погребения Спасителя, начинающийся пением тропарей «Благообразный Иосиф», «Егда снизошел еси?» и «Мироносицам женам?» После этого перед вынесенной из алтаря Плащаницей поются «Непорочны?» и читаются особые стихи, выражающие скорбь и трепет христианской души перед лежащим во гробе Богочеловеком.

В субботу утром совершается Божественная Литургия, предваряемая вечерней, песнопения которой призывают к благоговейному размышлению о том времени, которое отделяло Крестную смерть и погребение Христа от Его Воскресения из мертвых. Вместо Херувимской песни поется «Да молчит всякая плоть человеча?», напоминая нам об искупительном подвиге Спасителя. Не менее трогательно и красиво звучат «Не рыдай Мене, Мати?» и «Трисвятое», сопровождаемое ударами в колокол.

Монашеский хор исполняет песнопения византийского, знаменного, валаамского, болгарского и греческого распевов проникновенно, сдержанно и печально, как и подобает в Великий пост.
EAC log
Exact Audio Copy V0.99 prebeta 5 from 4. May 2009

Отчёт EAC об извлечении, выполненном 20. октября 2009, 18:03

иеродиакон Герман / Благословенная суббота

Дисковод: ASUS BC-1205PT Adapter: 1 ID: 0

Режим чтения : Достоверность
Использование точного потока : Да
Отключение кэша аудио : Да
Использование указателей C2 : Нет

Коррекция смещения при чтении : 667
Способность читать области Lead-in и Lead-out : Нет
Заполнение пропущенных сэмплов тишиной : Да
Удаление блоков с тишиной в начале и конце : Нет
При вычислениях CRC использовались нулевые сэмплы : Да
Интерфейс : Встроенный Win32-интерфейс для Win NT/2000

Выходной формат : Внутренние WAV-операции
Формат сэмплов : 44.100 Гц; 16 бит; стерео

TOC извлечённого CD

Трек | Старт | Длительность | Начальный сектор | Конечный сектор
---------------------------------------------------------------------
1 | 0:00.00 | 5:11.28 | 0 | 23352
2 | 5:11.28 | 9:44.66 | 23353 | 67218
3 | 14:56.19 | 10:34.03 | 67219 | 114771
4 | 25:30.22 | 7:31.21 | 114772 | 148617
5 | 33:01.43 | 8:35.15 | 148618 | 187257
6 | 41:36.58 | 1:07.33 | 187258 | 192315
7 | 42:44.16 | 0:50.00 | 192316 | 196065
8 | 43:34.16 | 1:55.16 | 196066 | 204706
9 | 45:29.32 | 6:58.28 | 204707 | 236084
10 | 52:27.60 | 2:27.43 | 236085 | 247152
11 | 54:55.28 | 1:44.37 | 247153 | 254989
12 | 56:39.65 | 0:48.34 | 254990 | 258623
13 | 57:28.24 | 7:56.53 | 258624 | 294376
14 | 65:25.02 | 2:35.65 | 294377 | 306066
15 | 68:00.67 | 1:24.21 | 306067 | 312387

Характеристики диапазона извлечения и сообщения об ошибках

Выбранный диапазон

Имя файла C:\иеродиакон Герман - Благословенная суббота.wav

Пиковый уровень 94.3 %
Качество диапазона 100.0 %
CRC копии 4D6584B0
Копирование... OK

Ошибок не произошло
Конец отчёта
Download

Войдите на сайт, чтобы увидеть полную информацию.

Как скачивать  ·   Правила трекера

[Профиль]  [ЛС] 

Idealist

Стаж: 8 лет 11 месяцев

Сообщений: 58

Russia

post 15-Ноя-2011 14:25 (спустя 2 года)

[Цитировать] 

Потрясающее пение, спаси, Господи Вас, Сергулет!
[Профиль]  [ЛС] 

devss

Стаж: 10 лет

Сообщений: 21

Откуда: РФ

Russia

post 08-Апр-2013 08:16 (спустя 1 год 4 месяца)

[Цитировать] 

Прошу раздать. Спаси Вас Господи.
[Профиль]  [ЛС] 

stepan-frunze

Стаж: 11 лет

Сообщений: 2563

Russia

post 11-Апр-2013 23:00 (спустя 3 дня)

[Цитировать] 

Благодарю.
[Профиль]  [ЛС] 

шульц54

Стаж: 6 лет 11 месяцев

Сообщений: 6

Russia

post 04-Май-2013 22:12 (спустя 22 дня)

[Цитировать] 

Спаси Господи.
[Профиль]  [ЛС] 

Artem-ka

Стаж: 9 лет 3 месяца

Сообщений: 10

post 19-Апр-2014 16:38 (спустя 11 месяцев)

[Цитировать] 

Благодарю!

???????????????????1oo777oo77oo$?? ?????
??????7??o????????o¶??????????? ??o¶o????
?????¶o7oo¶¶????o¶?????¶¶¶???¶¶????7¶???
?????¶1????¶???$o??????¶¶$???¶¶??????¶?
?????o¶???o¶??o¶???????¶¶o???¶¶? ??????oo
??????¶???¶???¶??????????????? ?????????o
????¶¶¶¶¶¶¶¶¶¶¶¶???¶¶????????? ?????????o
???¶????????????¶o¶¶?????????? ???¶¶????o
??o¶???????????o¶??¶¶???????????¶?????o
?¶¶???¶¶¶¶¶¶¶¶¶¶¶????¶¶??????? ¶¶¶??????o
?¶???????????????¶?????¶¶¶¶¶¶¶ ????????oo
?¶???????????????¶???????????? ????????¶?
??¶???¶¶¶¶¶¶¶¶¶¶?¶???????????? ??????¶o??
??o¶???????????¶??o¶¶7????????? ??oo¶????
???o¶$?o???oo¶o?????¶¶¶¶oooo¶¶¶?$
[Профиль]  [ЛС] 

serpantin04

Стаж: 8 лет 4 месяца

Сообщений: 84

Belarus

post 15-Июн-2014 13:04 (спустя 1 месяц 25 дней)

[Цитировать] 

Спасибо огромное.
[Профиль]  [ЛС] 

Alex Sag

Стаж: 10 лет

Сообщений: 281

Kazakhstan

post 20-Сен-2014 09:28 (спустя 3 месяца 4 дня)

[Цитировать] 

Спаси Господи!

_________________
Alexey
[Профиль]  [ЛС] 

Иван Владимирович

Стаж: 1 месяц 23 дня

Сообщений: 48

Russia

post 08-Фев-2020 20:04 (спустя 5 лет 4 месяца)

[Цитировать] 

Пожалуйста, встаньте на раздачу! Очень прошу! Скорость невыносимо низкая - 3 КБ/с
[Профиль]  [ЛС] 
Показать сообщения:    
Ответить на тему

Текущее время: 01-Апр 02:31

Часовой пояс: GMT + 4



Вы не можете начинать темы
Вы не можете отвечать на сообщения
Вы не можете редактировать свои сообщения
Вы не можете удалять свои сообщения
Вы не можете голосовать в опросах
Вы не можете прикреплять файлы к сообщениям
Вы не можете скачивать файлы