Loading...
Error

(Церковная музыка и церковные хоры (mp3 и другие lossy-форматы).) "Последование погребения монахов". Иеродиакон Герман (Рябцев). (2CD). - 2002, APE (image + .cue), lossless

Ответить на тему
Статистика раздачи
   
 
Автор Сообщение

СЕРГУЛЕТ

Стаж: 11 лет

Сообщений: 2637

Откуда: LA ROMANA

Dominicanrep

post 14-Фев-2010 00:19

[Цитировать] 

"Последование погребения монахов". Иеродиакон Герман (Рябцев). (2CD).

pic
Страна: Россия. Продюсерский центр Игоря Матвиенко.
Жанр: Церковная музыка и церковные хоры .
Год выпуска: 2002
Формат: APE (image + .cue)
Битрейт аудио: lossless
Продолжительность: 01:10:17+01:09:44
Трэклист:
диск 1
1. Начало обычное
2. Тропари, глас 4 «Со духи праведных»
3. Ектения
4. 90-й псалом и Аллилуиа, глас 8
5. Тропари, глас 8 «Глубиною мудрости»
Непорочны
6. 1-я статия
7. Ектения
8. 2-я статия
9. Тропари «Святых лик»
10. Ектения
11. Тропари, глас 5 «Покой Спасе»
12. 50-й псалом
Воскресные антифоны с тропарями св.Феофана на 8 гласов
13. Глас 1
14. Глас 2
15. Глас 3
16. Глас 4
17. Глас 5

диск 2
Воскресные антифоны с тропарями св.Феофана на 8 гласов
1. Глас 6
2. Глас 7
3. Глас 8
4. Ектения
5. Кондак и икос
6. Блаженны, глас 2
7. Чин Апостола
8. Чин Евангелия
9. Ектения
10. Стихиры на целование, глас 2
11. Иные стихиры на целование, глас 8, 4, 8
12. Тропари, глас 4 «Со духи праведных»
13. Ектения
14. Отпуст
15. Молитва духовника
16. Стихиры осьмогласны
17. Ектения
18. Молитвы пред покрытием
19. Стихиры како покрывати гроб, глас 8
EAC log
Exact Audio Copy V0.99 prebeta 5 from 4. May 2009

Отчёт EAC об извлечении, выполненном 13. февраля 2010, 22:07

Валаам / Последование погребения монахов (1)

Дисковод: ASUS DRW-2014L1T Adapter: 0 ID: 1

Режим чтения : Скоростной

Коррекция смещения при чтении : 6
Способность читать области Lead-in и Lead-out : Нет
Заполнение пропущенных сэмплов тишиной : Да
Удаление блоков с тишиной в начале и конце : Нет
При вычислениях CRC использовались нулевые сэмплы : Да
Интерфейс : Встроенный Win32-интерфейс для Win NT/2000

Выходной формат : Внутренние WAV-операции
Формат сэмплов : 44.100 Гц; 16 бит; стерео

TOC извлечённого CD

Трек | Старт | Длительность | Начальный сектор | Конечный сектор
---------------------------------------------------------------------
1 | 0:00.00 | 2:14.29 | 0 | 10078
2 | 2:14.29 | 2:43.74 | 10079 | 22377
3 | 4:58.28 | 2:13.04 | 22378 | 32356
4 | 7:11.32 | 2:47.27 | 32357 | 44908
5 | 9:58.59 | 2:59.06 | 44909 | 58339
6 | 12:57.65 | 9:24.09 | 58340 | 100648
7 | 22:21.74 | 1:43.11 | 100649 | 108384
8 | 24:05.10 | 8:40.26 | 108385 | 147410
9 | 32:45.36 | 6:09.63 | 147411 | 175148
10 | 38:55.24 | 1:38.31 | 175149 | 182529
11 | 40:33.55 | 2:40.46 | 182530 | 194575
12 | 43:14.26 | 1:56.57 | 194576 | 203332
13 | 45:11.08 | 4:13.21 | 203333 | 222328
14 | 49:24.29 | 5:18.68 | 222329 | 246246
15 | 54:43.22 | 3:44.40 | 246247 | 263086
16 | 58:27.62 | 4:32.15 | 263087 | 283501
17 | 63:00.02 | 6:44.00 | 283502 | 313801

Характеристики диапазона извлечения и сообщения об ошибках

Выбранный диапазон

Имя файла C:\Валаам - Последование погребения монахов (1).wav

Проблемы синхронизации 0:00:39

Пиковый уровень 95.4 %
CRC копии 9BC99BEA
Копирование завершено

Ошибок не произошло

Конец отчёта

CD2.
Exact Audio Copy V0.99 prebeta 5 from 4. May 2009

Отчёт EAC об извлечении, выполненном 13. февраля 2010, 22:18

Валаам / Последование погребения монахов

Дисковод: ASUS DRW-2014L1T Adapter: 0 ID: 1

Режим чтения : Скоростной

Коррекция смещения при чтении : 6
Способность читать области Lead-in и Lead-out : Нет
Заполнение пропущенных сэмплов тишиной : Да
Удаление блоков с тишиной в начале и конце : Нет
При вычислениях CRC использовались нулевые сэмплы : Да
Интерфейс : Встроенный Win32-интерфейс для Win NT/2000

Выходной формат : Внутренние WAV-операции
Формат сэмплов : 44.100 Гц; 16 бит; стерео

TOC извлечённого CD

Трек | Старт | Длительность | Начальный сектор | Конечный сектор
---------------------------------------------------------------------
1 | 0:00.00 | 4:31.58 | 0 | 20382
2 | 4:31.58 | 4:49.46 | 20383 | 42103
3 | 9:21.29 | 5:17.36 | 42104 | 65914
4 | 14:38.65 | 1:39.71 | 65915 | 73410
5 | 16:18.61 | 3:51.12 | 73411 | 90747
6 | 20:09.73 | 5:29.38 | 90748 | 115460
7 | 25:39.36 | 3:54.14 | 115461 | 133024
8 | 29:33.50 | 2:26.23 | 133025 | 143997
9 | 31:59.73 | 2:25.18 | 143998 | 154890
10 | 34:25.16 | 10:41.23 | 154891 | 202988
11 | 45:06.39 | 3:41.33 | 202989 | 219596
12 | 48:47.72 | 2:41.67 | 219597 | 231738
13 | 51:29.64 | 1:39.57 | 231739 | 239220
14 | 53:09.46 | 1:12.40 | 239221 | 244660
15 | 54:22.11 | 0:42.54 | 244661 | 247864
16 | 55:04.65 | 9:01.54 | 247865 | 288493
17 | 64:06.44 | 1:39.09 | 288494 | 295927
18 | 65:45.53 | 0:33.71 | 295928 | 298473
19 | 66:19.49 | 3:57.32 | 298474 | 316280

Пиковый уровень 99.9 %
CRC копии 31035C1D
Копирование завершено

Ошибок не произошло

Конец отчёта
Download

Войдите на сайт, чтобы увидеть полную информацию.

Как скачивать  ·   Правила трекера

[Профиль]  [ЛС] 

1A0F519B

post 21-Апр-2010 11:04 (спустя 2 месяца 8 дней)

[Цитировать] 

Заголовок у темы какой-то неправильный Smile
 

jaromar

Стаж: 10 лет

Сообщений: 21

Откуда: Краснодар.

Russia

post 07-Июн-2010 17:45 (спустя 1 месяц 16 дней)

[Цитировать] 

Намерен скачать все альбомы.
Не все правда раздаются. Но за месяц я думаю скачаю.
Скорость низкая. Но все равно буду пробовать.
Сергулету Успехов и Здоровья!
Ну и конечно же СПАСИБО !!!!!!!!!!!!!!!!!!
[Профиль]  [ЛС] 

CEPBEP4

Стаж: 8 лет 11 месяцев

Сообщений: 149

Откуда: ОРЕНБУРГ

Russia

post 09-Мар-2011 15:16 (спустя 9 месяцев)

[Цитировать] 

Первый диск не корректно режется, как исправить то, файлы дублирует! Помогите, или подскажите как порезать правильно! Question

_________________
pic
pic 100 Мбит/с pic 100 Мбит/с pic
[Профиль]  [ЛС] 

CEPBEP4

Стаж: 8 лет 11 месяцев

Сообщений: 149

Откуда: ОРЕНБУРГ

Russia

post 10-Мар-2011 13:16 (спустя 22 часа)

[Цитировать] 

Surprised При попытке порезать 1CD, прога cue пишет: Confused Трек с 03-по 17 имеет pregap-больше 20 секунд и есть подозрение, что он просто скрыт! Хотите его использовать в операции? Crying or Very sad что делать в этом случае, подскажите? А то режет файлы гиганских размеров! Mad Question Или в мр3 можно сделать?

_________________
pic
pic 100 Мбит/с pic 100 Мбит/с pic
[Профиль]  [ЛС] 

Kaumay

Стаж: 8 лет 1 месяц

Сообщений: 1

Russia

post 13-Янв-2012 12:14 (спустя 10 месяцев)

[Цитировать] 

CEPBEP4:

там в cue файла ошибки: начиная с 3 трека пишется строка INDEX 00 02:14:29

Если эту строку, начиная с 3 трека, удалить, то все будет ок
[Профиль]  [ЛС] 

shymsknik

Стаж: 9 лет 1 месяц

Сообщений: 182

Russia

post 18-Апр-2012 15:13 (спустя 3 месяца 5 дней)

[Цитировать] 

Брат Сергулет! Спаси Господи за Ваши раздачи!
[Профиль]  [ЛС] 

CEPBEP4

Стаж: 8 лет 11 месяцев

Сообщений: 149

Откуда: ОРЕНБУРГ

Russia

post 27-Окт-2012 12:10 (спустя 6 месяцев)

[Цитировать] 

Kaumay Благодарю вас, действительно так, автору надо бы перезалить файл cue, минутное дело!

_________________
pic
pic 100 Мбит/с pic 100 Мбит/с pic
[Профиль]  [ЛС] 

gavrik.s

Стаж: 8 лет 1 месяц

Сообщений: 85

post 21-Янв-2013 18:01 (спустя 2 месяца 25 дней)

[Цитировать] 

Иеродиакон Герман (Рябцев),записи с ним одни из самых лучших для прослушивания.
Жаль приходится самому исправлять проблему указанную выше.
Всё равно огромное спасибо.
[Профиль]  [ЛС] 

arch_Elijah

Стаж: 7 лет 5 месяцев

Сообщений: 182

Откуда: KIEV

Ukraine

post 21-Янв-2013 21:14 (спустя 3 часа)

[Цитировать] 

Спаси, Господи.
Залил себе...

_________________
орешек знаний твёрд...
[Профиль]  [ЛС] 

gavrik.s

Стаж: 8 лет 1 месяц

Сообщений: 85

post 13-Фев-2014 14:34 (спустя 1 год)

[Цитировать] 

Спасибо.Да,и в мп-3 не помешает наверно.
Раздачу поддержал-бы,но ошибку исправил,теперь наверно не получится раздавать...
[Профиль]  [ЛС] 

Alex Sag

Стаж: 10 лет

Сообщений: 281

Kazakhstan

post 07-Апр-2014 09:27 (спустя 1 месяц 21 день)

[Цитировать] 

Спаси Господи!

_________________
Alexey
[Профиль]  [ЛС] 

serpantin04

Стаж: 8 лет 3 месяца

Сообщений: 84

Belarus

post 15-Июн-2014 13:00 (спустя 2 месяца 8 дней)

[Цитировать] 

Спасибо.
[Профиль]  [ЛС] 

Иван Владимирович

Стаж: 15 дней

Сообщений: 47

Russia

post 14-Фев-2020 02:48 (спустя 5 лет 7 месяцев)

[Цитировать] 

Мне осталось всего 8 альбомов скачать. Остальное всё за неделю вышло:))
[Профиль]  [ЛС] 
Показать сообщения:    
Ответить на тему

Текущее время: 24-Фев 06:50

Часовой пояс: GMT + 4



Вы не можете начинать темы
Вы не можете отвечать на сообщения
Вы не можете редактировать свои сообщения
Вы не можете удалять свои сообщения
Вы не можете голосовать в опросах
Вы не можете прикреплять файлы к сообщениям
Вы не можете скачивать файлы