Loading...
Error

(Церковная музыка и церковные хоры (lossless).) «Двунадесятые праздники». "Рождество Пресвятой Богородицы". Иеродиакон Герман (Рябцев). (2 CD). - 2004, APE (image + .cue), lossless

Ответить на тему
Статистика раздачи
   
 
Автор Сообщение

СЕРГУЛЕТ

Стаж: 11 лет

Сообщений: 2637

Откуда: LA ROMANA

Dominicanrep

post 15-Фев-2010 14:33

[Цитировать] 

«Двунадесятые праздники». "Рождество Пресвятой Богородицы". Иеродиакон Герман (Рябцев). (2 CD).

pic
Страна: Россия. Продюсерский центр Игоря Матвиенко.
Жанр: Церковная музыка и церковные хоры (lossless).
Год выпуска: 2004
Формат: APE (image + .cue)
Битрейт аудио: lossless
Продолжительность: 00:43:27+00:45:12
Трэклист:
ДИСК I
На вечерне:
1. «Господи, воззвах…» [с псалмами] (глас 6****)
2. Стихиры на «Господи, воззвах…» (глас 6*)
«Днесь иже на разумном престоле…»
«Аще и Божественным хотением…»
«Днесь всемирныя радости провозвещение…»
3. «Слава, и ныне…» (глас 6*)
4. «Свете тихий…» (глас 6**)
5. Паремии
6. Стихира на литии «В благознаменитый день праздника нашего…» (глас 8*)
На утрене:
7. «Бог Господь…» (глас 4****)
Тропарь праздника «Рождество Твое, Богородице Дево…» (глас 4**)
8. Полиелей ***
9. Величание **
10. Седален «Да радуется небо и земля да веселится…»
11. «От юности моея…» (глас 4***/****)
12. Чин Евангелия (глас 4****)

ДИСК II
1. Псалом 50
2. Стихира «Сей день Господень…» **
Канон праздника [глас 2* / глас 8* (катавасии глас 8**)]
3. Песнь 1, 3
4. Седален «Дева Мария и Богородице истинна…»
5. Песнь 6
6. Кондак «Иоаким и Анна поношения бесчадства…» (глас 4**)
Икос «Молитва купно и воздыхание неплодства и бесчадства…»
7. Песнь 9
8. «Всякое дыхание…» [с псалмами] (глас 1****)
9. Стихира на хвалитех «О дивнаго чудесе…» (глас 1****)
10. «Слава, и ныне…» (глас 6**)

* знаменный распев
** знаменный распев с исоном
*** валаамский распев
**** валаамский распев с исоном
Дополнительная информация: Чтение Евангелия-иерей Ростислав Перебейнос.
Записано в домашней студии.
2003 год.
EAC log
Exact Audio Copy V0.99 prebeta 5 from 4. May 2009

Отчёт EAC об извлечении, выполненном 15. февраля 2010, 0:05

Unknown Artist / Рождество Богородицы-1

Дисковод: ASUS DRW-2014L1T Adapter: 0 ID: 1

Режим чтения : Скоростной

Коррекция смещения при чтении : 6
Способность читать области Lead-in и Lead-out : Нет
Заполнение пропущенных сэмплов тишиной : Да
Удаление блоков с тишиной в начале и конце : Нет
При вычислениях CRC использовались нулевые сэмплы : Да
Интерфейс : Встроенный Win32-интерфейс для Win NT/2000

Выходной формат : Внутренние WAV-операции
Формат сэмплов : 44.100 Гц; 16 бит; стерео

TOC извлечённого CD

Трек | Старт | Длительность | Начальный сектор | Конечный сектор
---------------------------------------------------------------------
1 | 0:00.00 | 3:43.40 | 0 | 16764
2 | 3:43.40 | 9:31.25 | 16765 | 59614
3 | 13:14.65 | 5:45.47 | 59615 | 85536
4 | 19:00.37 | 3:20.56 | 85537 | 100592
5 | 22:21.18 | 5:20.09 | 100593 | 124601
6 | 27:41.27 | 3:17.52 | 124602 | 139428
7 | 30:59.04 | 3:20.22 | 139429 | 154450
8 | 34:19.26 | 1:53.53 | 154451 | 162978
9 | 36:13.04 | 0:51.52 | 162979 | 166855
10 | 37:04.56 | 1:22.20 | 166856 | 173025
11 | 38:27.01 | 0:54.73 | 173026 | 177148
12 | 39:21.74 | 4:05.45 | 177149 | 195568

Характеристики диапазона извлечения и сообщения об ошибках

Выбранный диапазон

Имя файла C:\Unknown Artist - Рождество Богородицы-1.wav

Проблемы синхронизации 0:00:41

Пиковый уровень 99.6 %
CRC копии 5A55C78D
Копирование завершено

Ошибок не произошло

Конец отчёта
CD2.
Exact Audio Copy V0.99 prebeta 5 from 4. May 2009

Отчёт EAC об извлечении, выполненном 15. февраля 2010, 0:08

Иеродиакон Герман (Рябцев) / Рождество Пресвятой Богородицы-2

Дисковод: ASUS DRW-2014L1T Adapter: 0 ID: 1

Режим чтения : Скоростной

Коррекция смещения при чтении : 6
Способность читать области Lead-in и Lead-out : Нет
Заполнение пропущенных сэмплов тишиной : Да
Удаление блоков с тишиной в начале и конце : Нет
При вычислениях CRC использовались нулевые сэмплы : Да
Интерфейс : Встроенный Win32-интерфейс для Win NT/2000

Выходной формат : Внутренние WAV-операции
Формат сэмплов : 44.100 Гц; 16 бит; стерео

TOC извлечённого CD

Трек | Старт | Длительность | Начальный сектор | Конечный сектор
---------------------------------------------------------------------
1 | 0:00.00 | 1:58.37 | 0 | 8886
2 | 1:58.37 | 2:48.16 | 8887 | 21502
3 | 4:46.53 | 11:14.57 | 21503 | 72109
4 | 16:01.35 | 0:36.47 | 72110 | 74856
5 | 16:38.07 | 5:59.20 | 74857 | 101801
6 | 22:37.27 | 3:01.08 | 101802 | 115384
7 | 25:38.35 | 12:10.15 | 115385 | 170149
8 | 37:48.50 | 3:03.70 | 170150 | 183944
9 | 40:52.45 | 1:11.01 | 183945 | 189270
10 | 42:03.46 | 3:09.14 | 189271 | 203459

Характеристики диапазона извлечения и сообщения об ошибках

Выбранный диапазон

Имя файла C:\Иеродиакон Герман (Рябцев) - Рождество Пресвятой Богородицы-2.wav

Проблемы синхронизации 0:00:40

Пиковый уровень 100.0 %
CRC копии D9A0E3CB
Копирование завершено

Ошибок не произошло

Конец отчёта
Download

Войдите на сайт, чтобы увидеть полную информацию.

Как скачивать  ·   Правила трекера

[Профиль]  [ЛС] 

infinitie

Стаж: 11 лет

Сообщений: 5

Откуда: г. Обнинск

Russia

post 21-Сен-2010 18:12 (спустя 7 месяцев)

[Цитировать] 

Спасибо СЕРГУЛЕТ!
Не уходите с раздачи пожалуйста!
[Профиль]  [ЛС] 

CEPBEP4

Стаж: 8 лет 11 месяцев

Сообщений: 149

Откуда: ОРЕНБУРГ

Russia

post 03-Ноя-2012 13:21 (спустя 2 года 1 месяц)

[Цитировать] 

В первом треке 1. «Господи, воззвах…» [с псалмами] (глас 6****) в начале слышны щелчки небольшие, это и в оригинале тоже есть? Хотя они и не сколько не мешают, спасибо за альбом!

_________________
pic
pic 100 Мбит/с pic 100 Мбит/с pic
[Профиль]  [ЛС] 

serpantin04

Стаж: 8 лет 3 месяца

Сообщений: 84

Belarus

post 15-Июн-2014 12:58 (спустя 1 год 7 месяцев)

[Цитировать] 

Здорово.Спасибо.
[Профиль]  [ЛС] 

Иван Владимирович

Стаж: 15 дней

Сообщений: 47

Russia

post 10-Фев-2020 15:52 (спустя 5 лет 7 месяцев)

[Цитировать] 

Прошу, встаньте на раздачу! Спаси Господи!)))
[Профиль]  [ЛС] 
Показать сообщения:    
Ответить на тему

Текущее время: 24-Фев 05:21

Часовой пояс: GMT + 4



Вы не можете начинать темы
Вы не можете отвечать на сообщения
Вы не можете редактировать свои сообщения
Вы не можете удалять свои сообщения
Вы не можете голосовать в опросах
Вы не можете прикреплять файлы к сообщениям
Вы не можете скачивать файлы