Loading...
Error

(Церковная музыка и церковные хоры (lossless).) «Двунадесятые праздники». "Вход Господень в Иерусалим". Иеродиакон Герман (Рябцев). (2 CD). - 2003, APE (image + .cue), lossless

Ответить на тему
Статистика раздачи
   
 
Автор Сообщение

СЕРГУЛЕТ

Стаж: 8 лет 8 месяцев

Сообщений: 2640

Откуда: LA ROMANA

Dominicanrep

post 15-Фев-2010 15:40

[Цитировать] 

«Двунадесятые праздники». "Вход Господень в Иерусалим". Иеродиакон Герман (Рябцев). (2 CD).

pic
Страна: Россия. Продюсерский центр Игоря Матвиенко.
Жанр: Церковная музыка и церковные хоры (lossless).
Год выпуска: 2003
Формат: APE (image + .cue)
Битрейт аудио: lossless
Продолжительность: 00:45:24+00:39:49
Трэклист:
ДИСК I
На вечерне:
1. «Господи, воззвах…» [с псалмами] (глас 6*****)
Стихиры «На Господи, воззвах…» (глас 6)
2. «Имеяй престол…*»
3. «Приидите и мы днесь…*»
4. «Честное Воскресение…*»
5. «Слава, и ныне…»
«Днесь благодать Святаго Духа…» (глас 6 )
6. «Свете тихий…» (глас 6**)
7. Паремии
8. «Всесвятый Дух…» (глас 1*)
9. «Слава, и ныне…» Богородичен (глас 3*)

На утрене:
10. «Бог Господь…» (глас 1*****)
11. Тропарь праздника «Общее воскресение…» (глас 1)
«Слава, и ныне…» (глас 4)
12. Полиелей ****
13. Величание **
14. Чин Евангелия *****

ДИСК II
1. Псалом 50
2. «Днесь Христос…» (глас 2**)
Канон праздника (глас 4)
3. Песнь 1, 3 */**
4. Седален «Свет ми воспевше прежде…» (глас 6******)
5. Песнь 4, 5, 6 */**
6. Кондак «На престоле на небеси…» (глас 6 *)
7. Икос «Вонеже ада связал еси…»
8. Синаксарий
9. Песнь 7, 8, 9 */**
10. «Всякое дыхание…» (глас 4*****)
11. Стихира на хвалитех «Множество народа…» (глас 4***)
12. «Слава, и ныне…» «Прежде шести дней Пасхи…» (глас 6*)

* знаменная монодия
** знаменный распев с исоном
*** малый знаменный распев с исоном
**** валаамская монодия
***** валаамский распев с исоном
****** обиходная монодия
Дополнительная информация: Чтение Евангелия-иерей Ростислав Перебейнос.
Записано в домашней студии.
2003 год.
EAC log
Exact Audio Copy V0.99 prebeta 5 from 4. May 2009

Отчёт EAC об извлечении, выполненном 14. февраля 2010, 23:23

Unknown Artist / Вход Господень-1

Дисковод: ASUS DRW-2014L1T Adapter: 0 ID: 1

Режим чтения : Скоростной

Коррекция смещения при чтении : 6
Способность читать области Lead-in и Lead-out : Нет
Заполнение пропущенных сэмплов тишиной : Да
Удаление блоков с тишиной в начале и конце : Нет
При вычислениях CRC использовались нулевые сэмплы : Да
Интерфейс : Встроенный Win32-интерфейс для Win NT/2000

Выходной формат : Внутренние WAV-операции
Формат сэмплов : 44.100 Гц; 16 бит; стерео

TOC извлечённого CD

Трек | Старт | Длительность | Начальный сектор | Конечный сектор
---------------------------------------------------------------------
1 | 0:00.00 | 3:43.25 | 0 | 16749
2 | 3:43.25 | 2:37.11 | 16750 | 28535
3 | 6:20.36 | 2:49.58 | 28536 | 41268
4 | 9:10.19 | 3:32.19 | 41269 | 57187
5 | 12:42.38 | 1:36.52 | 57188 | 64439
6 | 14:19.15 | 3:20.70 | 64440 | 79509
7 | 17:40.10 | 5:36.09 | 79510 | 104718
8 | 23:16.19 | 1:37.61 | 104719 | 112054
9 | 24:54.05 | 3:37.20 | 112055 | 128349
10 | 28:31.25 | 2:10.23 | 128350 | 138122
11 | 30:41.48 | 2:33.25 | 138123 | 149622
12 | 33:14.73 | 6:01.28 | 149623 | 176725
13 | 39:16.26 | 0:58.51 | 176726 | 181126
14 | 40:15.02 | 5:09.03 | 181127 | 204304

Характеристики диапазона извлечения и сообщения об ошибках

Выбранный диапазон

Имя файла C:\Unknown Artist - Вход Господень-1.wav

Проблемы синхронизации 0:00:38

Пиковый уровень 97.7 %
CRC копии 39528BC7
Копирование завершено

Ошибок не произошло

Конец отчёта
cd2.
Exact Audio Copy V0.99 prebeta 5 from 4. May 2009

Отчёт EAC об извлечении, выполненном 14. февраля 2010, 23:27

Unknown Artist / Вход Господень-2

Дисковод: ASUS DRW-2014L1T Adapter: 0 ID: 1

Режим чтения : Скоростной

Коррекция смещения при чтении : 6
Способность читать области Lead-in и Lead-out : Нет
Заполнение пропущенных сэмплов тишиной : Да
Удаление блоков с тишиной в начале и конце : Нет
При вычислениях CRC использовались нулевые сэмплы : Да
Интерфейс : Встроенный Win32-интерфейс для Win NT/2000

Выходной формат : Внутренние WAV-операции
Формат сэмплов : 44.100 Гц; 16 бит; стерео

TOC извлечённого CD

Трек | Старт | Длительность | Начальный сектор | Конечный сектор
---------------------------------------------------------------------
1 | 0:00.00 | 1:57.36 | 0 | 8810
2 | 1:57.36 | 1:43.29 | 8811 | 16564
3 | 3:40.65 | 5:57.32 | 16565 | 43371
4 | 9:38.22 | 0:44.73 | 43372 | 46744
5 | 10:23.20 | 6:49.01 | 46745 | 77420
6 | 17:12.21 | 1:23.25 | 77421 | 83670
7 | 18:35.46 | 0:54.52 | 83671 | 87772
8 | 19:30.23 | 3:43.54 | 87773 | 104551
9 | 23:14.02 | 9:13.62 | 104552 | 146088
10 | 32:27.64 | 3:15.27 | 146089 | 160740
11 | 35:43.16 | 0:51.14 | 160741 | 164579
12 | 36:34.30 | 3:15.37 | 164580 | 179241

Характеристики диапазона извлечения и сообщения об ошибках

Выбранный диапазон

Имя файла C:\Unknown Artist - Вход Господень-2.wav

Проблемы синхронизации 0:00:38

Пиковый уровень 97.7 %
CRC копии A431CF9A
Копирование завершено

Ошибок не произошло

Конец отчёта
Download

Войдите на сайт, чтобы увидеть полную информацию.

Как скачивать  ·   Правила трекера

[Профиль]  [ЛС] 

jaromar

Стаж: 7 лет 9 месяцев

Сообщений: 21

Откуда: Краснодар.

Russia

post 10-Июн-2010 00:29 (спустя 3 месяца 22 дня)

[Цитировать] 

Спасибо! Качаем!!!!!!!!!!!
[Профиль]  [ЛС] 

serpantin04

Стаж: 5 лет 11 месяцев

Сообщений: 84

Belarus

post 15-Июн-2014 12:49 (спустя 4 года)

[Цитировать] 

Спасибо.
[Профиль]  [ЛС] 

0304mel

Стаж: 4 года 4 месяца

Сообщений: 111

Russia

post 20-Окт-2014 20:38 (спустя 4 месяца 5 дней)

[Цитировать] 

Надеюсь очень на раздачу. Вам спасибо.
[Профиль]  [ЛС] 

mars1574

Стаж: 3 года 9 месяцев

Сообщений: 33

Russia

post 07-Окт-2017 14:04 (спустя 2 года 11 месяцев)

[Цитировать] 

Cпаси Гoсподи
[Профиль]  [ЛС] 
Показать сообщения:    
Ответить на тему

Текущее время: 19-Окт 01:55

Часовой пояс: GMT + 4



Вы не можете начинать темы
Вы не можете отвечать на сообщения
Вы не можете редактировать свои сообщения
Вы не можете удалять свои сообщения
Вы не можете голосовать в опросах
Вы не можете прикреплять файлы к сообщениям
Вы не можете скачивать файлы