Loading...
Error

(Церковная музыка и церковные хоры (lossless)) «Двунадесятые праздники». "Вознесение Господне". Иеродиакон Герман (Рябцев). (2 CD). - 2003, APE (image + .cue), lossless

Ответить на тему
Статистика раздачи
   
 
Автор Сообщение

СЕРГУЛЕТ

Стаж: 8 лет 9 месяцев

Сообщений: 2640

Откуда: LA ROMANA

Dominicanrep

post 15-Фев-2010 15:50

[Цитировать] 

«Двунадесятые праздники». "Вознесение Господне". Иеродиакон Герман (Рябцев). (2 CD).

pic
Страна: Россия. Продюсерский центр Игоря Матвиенко.
Жанр: Церковная музыка и церковные хоры (lossless)
Год выпуска: 2003
Формат: APE (image + .cue)
Битрейт аудио: lossless
Продолжительность: 00:41:59+00:38:11
Трэклист:
ДИСК I
На вечерне:
1. Господи, воззвах… [с псалмами] (глас 6 *****)
Стихиры на Господи, воззвах… (глас 6)
2. Господь вознесеся на небеса…*
3. Господи, Твоему Вознесению…*
4. На горах святых…*
5. Слава, и ныне…
Недр Отеческихѕ (глас 6*)
6. Свете тихий… (глас 6**)
7. Паремии
8. Восшед на небеса… глас 1 *
9. Слава, и ныне… Богородичен (глас 4**)
На утрене:
10. Бог Господь… (глас 4******)
11. Тропарь праздника Вознеслся еси… (глас 4 ******/***/*)
12. Полиелей ****
13. Величание **
14. Чин Евангелия (глас 4**)

ДИСК II
1. Псалом 50
2. Днесь на небесе… (глас 6**)
Канон праздника (глас 5*/глас 4**)
3. Песнь 1, 3
4. Седален Сед на облаке…
5. Песнь 4, 5, 6
6. Кондак Еже о нас исполнив… (глас 6*)
Икос Яже земли и на земли…
7. Песнь 7, 8
8. Песнь 9
9. Экзапостиларий *
10. Всякое дыхание… (глас 1 *****)
11. Стихира на хвалитех Ангельски иже в мире… (глас 1)
Подобен: Небесных чинов… (Напев Оптиной пустыни)
12. Слава, и ныне…
Родился еси… (глас 2**)

* знаменный распев
** знаменный распев с исоном
*** малый знаменный распев
**** валаамский распев
***** валаамский распев с исоном
****** обиходный распев
Дополнительная информация: Чтение Евангелия-иерей Ростислав Перебейнос.
Записано в домашней студии.
2003 год.
EAC log
Exact Audio Copy V0.99 prebeta 5 from 4. May 2009

Отчёт EAC об извлечении, выполненном 14. февраля 2010, 23:07

Иеродиакон Герман (Рябцев) / Вознесение Господне-1

Дисковод: ASUS DRW-2014L1T Adapter: 0 ID: 1

Режим чтения : Скоростной

Коррекция смещения при чтении : 6
Способность читать области Lead-in и Lead-out : Нет
Заполнение пропущенных сэмплов тишиной : Да
Удаление блоков с тишиной в начале и конце : Нет
При вычислениях CRC использовались нулевые сэмплы : Да
Интерфейс : Встроенный Win32-интерфейс для Win NT/2000

Выходной формат : Внутренние WAV-операции
Формат сэмплов : 44.100 Гц; 16 бит; стерео

TOC извлечённого CD

Трек | Старт | Длительность | Начальный сектор | Конечный сектор
---------------------------------------------------------------------
1 | 0:00.00 | 3:43.43 | 0 | 16767
2 | 3:43.43 | 2:36.19 | 16768 | 28486
3 | 6:19.62 | 1:32.44 | 28487 | 35430
4 | 7:52.31 | 1:36.44 | 35431 | 42674
5 | 9:29.00 | 4:40.25 | 42675 | 63699
6 | 14:09.25 | 3:21.19 | 63700 | 78793
7 | 17:30.44 | 4:50.11 | 78794 | 100554
8 | 22:20.55 | 1:07.63 | 100555 | 105642
9 | 23:28.43 | 2:48.11 | 105643 | 118253
10 | 26:16.54 | 1:23.36 | 118254 | 124514
11 | 27:40.15 | 2:28.33 | 124515 | 135647
12 | 30:08.48 | 6:02.16 | 135648 | 162813
13 | 36:10.64 | 1:04.60 | 162814 | 167673
14 | 37:15.49 | 4:43.41 | 167674 | 188939

Характеристики диапазона извлечения и сообщения об ошибках

Выбранный диапазон

Имя файла C:\Иеродиакон Герман (Рябцев) - Вознесение Господне-1.wav

Проблемы синхронизации 0:00:38

Пиковый уровень 97.7 %
CRC копии E2EAF221
Копирование завершено

Ошибок не произошло

Конец отчёта

cd2.
Exact Audio Copy V0.99 prebeta 5 from 4. May 2009

Отчёт EAC об извлечении, выполненном 14. февраля 2010, 23:10

Иеродиакон Герман (Рябцев) / Вознесение Господне-2

Дисковод: ASUS DRW-2014L1T Adapter: 0 ID: 1

Режим чтения : Скоростной

Коррекция смещения при чтении : 6
Способность читать области Lead-in и Lead-out : Нет
Заполнение пропущенных сэмплов тишиной : Да
Удаление блоков с тишиной в начале и конце : Нет
При вычислениях CRC использовались нулевые сэмплы : Да
Интерфейс : Встроенный Win32-интерфейс для Win NT/2000

Выходной формат : Внутренние WAV-операции
Формат сэмплов : 44.100 Гц; 16 бит; стерео

TOC извлечённого CD

Трек | Старт | Длительность | Начальный сектор | Конечный сектор
---------------------------------------------------------------------
1 | 0:00.00 | 1:56.63 | 0 | 8762
2 | 1:56.63 | 2:58.32 | 8763 | 22144
3 | 4:55.20 | 5:15.46 | 22145 | 45815
4 | 10:10.66 | 0:45.08 | 45816 | 49198
5 | 10:55.74 | 5:50.74 | 49199 | 75522
6 | 16:46.73 | 2:44.00 | 75523 | 87822
7 | 19:30.73 | 3:44.68 | 87823 | 104690
8 | 23:15.66 | 6:32.56 | 104691 | 134146
9 | 29:48.47 | 1:24.14 | 134147 | 140460
10 | 31:12.61 | 3:12.46 | 140461 | 154906
11 | 34:25.32 | 1:03.58 | 154907 | 159689
12 | 35:29.15 | 2:42.47 | 159690 | 171886

Характеристики диапазона извлечения и сообщения об ошибках

Выбранный диапазон

Имя файла C:\Иеродиакон Герман (Рябцев) - Вознесение Господне-2.wav

Проблемы синхронизации 0:00:39

Пиковый уровень 97.7 %
CRC копии 66428FE4
Копирование завершено

Ошибок не произошло

Конец отчёта
Download

Войдите на сайт, чтобы увидеть полную информацию.

Как скачивать  ·   Правила трекера

[Профиль]  [ЛС] 

Idealist

Стаж: 6 лет 7 месяцев

Сообщений: 58

Russia

post 15-Ноя-2011 14:14 (спустя 1 год 8 месяцев)

[Цитировать] 

Благодарю от души!
[Профиль]  [ЛС] 

serpantin04

Стаж: 6 лет

Сообщений: 84

Belarus

post 15-Июн-2014 12:47 (спустя 2 года 6 месяцев)

[Цитировать] 

Благодарю.
[Профиль]  [ЛС] 

mars1574

Стаж: 3 года 10 месяцев

Сообщений: 33

Russia

post 28-Сен-2017 21:02 (спустя 3 года 3 месяца)

[Цитировать] 

Спaсибо!
[Профиль]  [ЛС] 
Показать сообщения:    
Ответить на тему

Текущее время: 19-Ноя 16:08

Часовой пояс: GMT + 4



Вы не можете начинать темы
Вы не можете отвечать на сообщения
Вы не можете редактировать свои сообщения
Вы не можете удалять свои сообщения
Вы не можете голосовать в опросах
Вы не можете прикреплять файлы к сообщениям
Вы не можете скачивать файлы