Loading...
Error

(Церковная музыка и церковные хоры (lossless).) «Двунадесятые праздники». "Преображение Господне". Иеродиакон Герман (Рябцев). (2 CD). - 2003, APE (image + .cue), lossless

Ответить на тему
Статистика раздачи
   
 
Автор Сообщение

СЕРГУЛЕТ

Стаж: 8 лет 8 месяцев

Сообщений: 2640

Откуда: LA ROMANA

Dominicanrep

post 15-Фев-2010 16:06

[Цитировать] 

«Двунадесятые праздники». "Преображение Господне". Иеродиакон Герман (Рябцев). (2 CD).

pic
Страна: Россия. Продюсерский центр Игоря Матвиенко.
Жанр: Церковная музыка и церковные хоры (lossless).
Год выпуска: 2003
Формат: APE (image + .cue)
Битрейт аудио: lossless
Продолжительность: 00:44:35+00:44:06
Трэклист:
ДИСК I
На вечерне:
1. Господи, воззвах… (с псалмами) (глас 4*)
2. Стихиры на Господи, воззвах… (глас 4)
Прежде Креста Твоего, Господи…
Гора яже иногда мрачна и дымна…
3. Слава, и ныне…
Прообразуя Воскресение Твое… (глас 6*)
4. Свете тихий… (глас 6**)
5. Паремии
6. Иже светом Твоим… (глас 2*)

На утрене:
7. Бог Господь… (глас 7****)
Тропарь праздника Преобразился еси на горе… (глас 7**)
8. Полиелей ***
9. Величание (знаменное трехголосие)
10. Седален Восшед со ученики…
11. От юности моея… (глас 4****)
12. Чин Евангелия****
13. Псалом 50
14. Божества Твоего, Спасе мой… (глас 5*)

ДИСК II
Канон праздника (глас 4* / глас 8*/**)
1. Песнь 1, 3
2. Седален На горе Фаворстей…
3. Песнь 4, 5, 6
4. Кондак На горе преобразился еси…*
Икос Восстаните, ленивие…
5. Песнь 7, 8
6. Песнь 9
7. Поят Христос Петра, Иакова и Иоанна… (глас 8*)

* знаменный распев
** знаменный распев с исоном
*** валаамский распев
**** валаамский распев с исоном
Дополнительная информация: Чтение Евангелия-иерей Ростислав Перебейнос.
Записано в домашней студии.
2003 год.
EAC log
Exact Audio Copy V0.99 prebeta 5 from 4. May 2009

Отчёт EAC об извлечении, выполненном 14. февраля 2010, 22:38

иеродиакон Герман (Рябцев) / Преображение Господне-1

Дисковод: ASUS DRW-2014L1T Adapter: 0 ID: 1

Режим чтения : Скоростной

Коррекция смещения при чтении : 6
Способность читать области Lead-in и Lead-out : Нет
Заполнение пропущенных сэмплов тишиной : Да
Удаление блоков с тишиной в начале и конце : Нет
При вычислениях CRC использовались нулевые сэмплы : Да
Интерфейс : Встроенный Win32-интерфейс для Win NT/2000

Выходной формат : Внутренние WAV-операции
Формат сэмплов : 44.100 Гц; 16 бит; стерео

TOC извлечённого CD

Трек | Старт | Длительность | Начальный сектор | Конечный сектор
---------------------------------------------------------------------
1 | 0:00.00 | 3:43.53 | 0 | 16777
2 | 3:43.53 | 7:39.31 | 16778 | 51233
3 | 11:23.09 | 3:36.56 | 51234 | 67489
4 | 14:59.65 | 3:20.11 | 67490 | 82500
5 | 18:20.01 | 8:23.69 | 82501 | 120294
6 | 26:43.70 | 1:26.46 | 120295 | 126790
7 | 28:10.41 | 3:11.01 | 126791 | 141116
8 | 31:21.42 | 1:53.06 | 141117 | 149597
9 | 33:14.48 | 1:23.72 | 149598 | 155894
10 | 34:38.45 | 0:28.31 | 155895 | 158025
11 | 35:07.01 | 0:53.70 | 158026 | 162070
12 | 36:00.71 | 4:34.02 | 162071 | 182622
13 | 40:34.73 | 1:56.22 | 182623 | 191344
14 | 42:31.20 | 2:04.25 | 191345 | 200669

Характеристики диапазона извлечения и сообщения об ошибках

Выбранный диапазон

Имя файла C:\иеродиакон Герман (Рябцев) - Преображение Господне-1.wav

Проблемы синхронизации 0:00:38

Пиковый уровень 97.7 %
CRC копии 58438944
Копирование завершено

Ошибок не произошло

Конец отчёта

cd2.
Exact Audio Copy V0.99 prebeta 5 from 4. May 2009

Отчёт EAC об извлечении, выполненном 14. февраля 2010, 22:43

Unknown Artist / Преображение-2

Дисковод: ASUS DRW-2014L1T Adapter: 0 ID: 1

Режим чтения : Скоростной

Коррекция смещения при чтении : 6
Способность читать области Lead-in и Lead-out : Нет
Заполнение пропущенных сэмплов тишиной : Да
Удаление блоков с тишиной в начале и конце : Нет
При вычислениях CRC использовались нулевые сэмплы : Да
Интерфейс : Встроенный Win32-интерфейс для Win NT/2000

Выходной формат : Внутренние WAV-операции
Формат сэмплов : 44.100 Гц; 16 бит; стерео

TOC извлечённого CD

Трек | Старт | Длительность | Начальный сектор | Конечный сектор
---------------------------------------------------------------------
1 | 0:00.00 | 7:31.01 | 0 | 33825
2 | 7:31.01 | 0:36.52 | 33826 | 36577
3 | 8:07.53 | 11:10.30 | 36578 | 86857
4 | 19:18.08 | 2:35.62 | 86858 | 98544
5 | 21:53.70 | 9:20.74 | 98545 | 140618
6 | 31:14.69 | 8:51.57 | 140619 | 180500
7 | 40:06.51 | 3:59.30 | 180501 | 198455

Характеристики диапазона извлечения и сообщения об ошибках

Выбранный диапазон

Имя файла C:\Unknown Artist - Преображение-2.wav

Проблемы синхронизации 0:00:38

Пиковый уровень 97.7 %
CRC копии 5CE3E85C
Копирование завершено

Ошибок не произошло

Конец отчёта
Download

Войдите на сайт, чтобы увидеть полную информацию.

Как скачивать  ·   Правила трекера

[Профиль]  [ЛС] 

Idealist

Стаж: 6 лет 6 месяцев

Сообщений: 58

Russia

post 15-Ноя-2011 14:10 (спустя 1 год 8 месяцев)

[Цитировать] 

Спаси, Господи, доброе дело делаете, Сергулет!
[Профиль]  [ЛС] 

CEPBEP4

Стаж: 6 лет 7 месяцев

Сообщений: 133

Откуда: ОРЕНБУРГ

Russia

post 05-Ноя-2012 21:21 (спустя 11 месяцев)

[Цитировать] 

Спасибо конечно, диски замечательные, но файлы cue всегда править приходится!

_________________
pic
pic 100 Мбит/с pic 100 Мбит/с pic
[Профиль]  [ЛС] 

serpantin04

Стаж: 5 лет 11 месяцев

Сообщений: 84

Belarus

post 15-Июн-2014 12:44 (спустя 1 год 7 месяцев)

[Цитировать] 

Спасибо.
[Профиль]  [ЛС] 

mars1574

Стаж: 3 года 9 месяцев

Сообщений: 33

Russia

post 07-Окт-2017 14:07 (спустя 3 года 3 месяца)

[Цитировать] 

Cпаси Гoсподи
[Профиль]  [ЛС] 
Показать сообщения:    
Ответить на тему

Текущее время: 19-Окт 01:59

Часовой пояс: GMT + 4



Вы не можете начинать темы
Вы не можете отвечать на сообщения
Вы не можете редактировать свои сообщения
Вы не можете удалять свои сообщения
Вы не можете голосовать в опросах
Вы не можете прикреплять файлы к сообщениям
Вы не можете скачивать файлы