Loading...
Error

(Церковная музыка и церковные хоры (lossless).) «Двунадесятые праздники». "Успение Пресвятой Богородицы". Иеродиакон Герман (Рябцев). (2 CD). - 2003, APE (image + .cue), lossless

Ответить на тему
Статистика раздачи
   
 
Автор Сообщение

СЕРГУЛЕТ

Стаж: 11 лет

Сообщений: 2637

Откуда: LA ROMANA

Dominicanrep

post 15-Фев-2010 16:14

[Цитировать] 

«Двунадесятые праздники». "Успение Пресвятой Богородицы". Иеродиакон Герман (Рябцев). (2 CD).

pic
Страна: Россия. Продюсерский центр Игоря Матвиенко.
Жанр: Церковная музыка и церковные хоры (lossless).
Год выпуска: 2003
Формат: APE (image + .cue)
Битрейт аудио: lossless
Продолжительность: 00:44:25+00:45:22
Трэклист:
ДИСК I
На вечерне:
1. «Господи, воззвах…» [с псалмами] (глас 1****)
2. Стихиры на «Господи, воззвах…» (глас 1*)
3. «Слава, и ныне…», «Богоначальным мановением…*»
4. «Свете тихий…» (глас 1**)
5. Паремии
6. «Приидите, вси концы земние…» (глас 3*)
7. «Слава, и ныне…» Богородичен (глас 5*)

На утрене:
8. «Бог Господь…» (глас 1 ****)
Тропарь праздника «В Рождестве девство сохранила еси…» (глас 1 **)
9. Полиелей***
10. Величание **
11. Седален «Возопи, Давиде…»
12. «От юности моея…» (глас 4 ***/****)
13. Чин Евангелия (глас 4 ****)
14. Псалом 50

ДИСК II
1. «Егда преставление…» глас 6 **
Канон (глас 1* / глас 4**)
2. Песнь 1, 3
3. Ипакои (глас 8*****)
4. Песнь 4, 5, 6
5. Кондак «В молитвах неусыпающую Богородицу…» (глас 2*)
Икос «Огради моя помышления, Христе мой…»
6. Песнь 7, 8
7. Песнь 9
8. «Всякое дыхание…» (глас 4 ****)
9. Стихира на хвалитех «В славном Успении Твоем…» (глас 4 **)

* знаменный распев
** знаменный распев с исоном
*** валаамский распев
**** валаамский распев с исоном
***** малый знаменный распев с исоном
Дополнительная информация: Чтение Евангелия-иерей Ростислав Перебейнос.
Записано в домашней студии.
2003 год.
EAC log
Exact Audio Copy V0.99 prebeta 5 from 4. May 2009

Отчёт EAC об извлечении, выполненном 14. февраля 2010, 23:14

Unknown Artist / Успение-1

Дисковод: ASUS DRW-2014L1T Adapter: 0 ID: 1

Режим чтения : Скоростной

Коррекция смещения при чтении : 6
Способность читать области Lead-in и Lead-out : Нет
Заполнение пропущенных сэмплов тишиной : Да
Удаление блоков с тишиной в начале и конце : Нет
При вычислениях CRC использовались нулевые сэмплы : Да
Интерфейс : Встроенный Win32-интерфейс для Win NT/2000

Выходной формат : Внутренние WAV-операции
Формат сэмплов : 44.100 Гц; 16 бит; стерео

TOC извлечённого CD

Трек | Старт | Длительность | Начальный сектор | Конечный сектор
---------------------------------------------------------------------
1 | 0:00.00 | 3:40.69 | 0 | 16568
2 | 3:40.69 | 5:25.60 | 16569 | 41003
3 | 9:06.54 | 5:47.66 | 41004 | 67094
4 | 14:54.45 | 3:04.11 | 67095 | 80905
5 | 17:58.56 | 5:11.38 | 80906 | 104268
6 | 23:10.19 | 1:36.03 | 104269 | 111471
7 | 24:46.22 | 2:01.62 | 111472 | 120608
8 | 26:48.09 | 3:24.30 | 120609 | 135938
9 | 30:12.39 | 6:00.47 | 135939 | 162985
10 | 36:13.11 | 0:48.54 | 162986 | 166639
11 | 37:01.65 | 0:37.27 | 166640 | 169441
12 | 37:39.17 | 0:54.55 | 169442 | 173546
13 | 38:33.72 | 3:49.13 | 173547 | 190734
14 | 42:23.10 | 2:02.17 | 190735 | 199901

Характеристики диапазона извлечения и сообщения об ошибках

Выбранный диапазон

Имя файла C:\Unknown Artist - Успение-1.wav

Проблемы синхронизации 0:00:39

Пиковый уровень 97.7 %
CRC копии 5471E3F4
Копирование завершено

Ошибок не произошло

Конец отчёта

CD2.
Exact Audio Copy V0.99 prebeta 5 from 4. May 2009

Отчёт EAC об извлечении, выполненном 14. февраля 2010, 23:18

Unknown Artist / Успение-2

Дисковод: ASUS DRW-2014L1T Adapter: 0 ID: 1

Режим чтения : Скоростной

Коррекция смещения при чтении : 6
Способность читать области Lead-in и Lead-out : Нет
Заполнение пропущенных сэмплов тишиной : Да
Удаление блоков с тишиной в начале и конце : Нет
При вычислениях CRC использовались нулевые сэмплы : Да
Интерфейс : Встроенный Win32-интерфейс для Win NT/2000

Выходной формат : Внутренние WAV-операции
Формат сэмплов : 44.100 Гц; 16 бит; стерео

TOC извлечённого CD

Трек | Старт | Длительность | Начальный сектор | Конечный сектор
---------------------------------------------------------------------
1 | 0:00.00 | 4:08.16 | 0 | 18615
2 | 4:08.16 | 5:48.29 | 18616 | 44744
3 | 9:56.45 | 1:35.03 | 44745 | 51872
4 | 11:31.48 | 9:28.62 | 51873 | 94534
5 | 21:00.35 | 2:25.09 | 94535 | 105418
6 | 23:25.44 | 7:45.52 | 105419 | 140345
7 | 31:11.21 | 9:08.49 | 140346 | 181494
8 | 40:19.70 | 3:15.56 | 181495 | 196175
9 | 43:35.51 | 2:17.00 | 196176 | 206450

Характеристики диапазона извлечения и сообщения об ошибках

Выбранный диапазон

Имя файла C:\Unknown Artist - Успение-2.wav

Проблемы синхронизации 0:00:39

Пиковый уровень 97.7 %
CRC копии C4554D85
Копирование завершено

Ошибок не произошло

Конец отчёта
Download

Войдите на сайт, чтобы увидеть полную информацию.

Как скачивать  ·   Правила трекера

[Профиль]  [ЛС] 

stepan-frunze

Стаж: 10 лет

Сообщений: 2563

Russia

post 20-Авг-2013 23:52 (спустя 3 года 6 месяцев)

[Цитировать] 

СпасиБо
[Профиль]  [ЛС] 

Feodora

Стаж: 6 лет 5 месяцев

Сообщений: 4

post 03-Ноя-2013 18:10 (спустя 2 месяца 13 дней)

[Цитировать] 

Огромное спасибо!
[Профиль]  [ЛС] 

serpantin04

Стаж: 8 лет 3 месяца

Сообщений: 84

Belarus

post 15-Июн-2014 12:41 (спустя 7 месяцев)

[Цитировать] 

Нет слов. Благодарю.
[Профиль]  [ЛС] 

Иван Владимирович

Стаж: 11 дней

Сообщений: 47

Russia

post 13-Фев-2020 21:29 (спустя 5 лет 7 месяцев)

[Цитировать] 

Спасибо Вам большое! Встаньте на раздачу!
[Профиль]  [ЛС] 

Иван Владимирович

Стаж: 11 дней

Сообщений: 47

Russia

post 16-Фев-2020 01:47 (спустя 2 дня 4 часа)

[Цитировать] 

А куда пропали раздачи? Пожалуйста, прошу, ради Бога встаньте на сиды...
[Профиль]  [ЛС] 

CEPBEP4

Стаж: 8 лет 11 месяцев

Сообщений: 149

Откуда: ОРЕНБУРГ

Russia

post 17-Фев-2020 17:24 (спустя 1 день 15 часов)

[Цитировать] 

Иван Владимирович
Уже давно сижу на раздаче.

_________________
pic
pic 100 Мбит/с pic 100 Мбит/с pic
[Профиль]  [ЛС] 
Показать сообщения:    
Ответить на тему

Текущее время: 20-Фев 08:35

Часовой пояс: GMT + 4



Вы не можете начинать темы
Вы не можете отвечать на сообщения
Вы не можете редактировать свои сообщения
Вы не можете удалять свои сообщения
Вы не можете голосовать в опросах
Вы не можете прикреплять файлы к сообщениям
Вы не можете скачивать файлы