Loading...
Error

(Церковная музыка и церковные хоры (lossless)) Двунадесятые праздники - Иеродиакон Герман (Рябцев) / Введение во храм Пресвятой Богородицы (2CD) - 2003, APE (image + .cue), lossless

Страницы:  1, 2  След.

Ответить на тему
Статистика раздачи
   
 
Автор Сообщение

СЕРГУЛЕТ

Стаж: 13 лет

Сообщений: 2637

Откуда: LA ROMANA

Dominicanrep

post 17-Фев-2010 20:10

[Цитировать] 

Двунадесятые праздники - Иеродиакон Герман (Рябцев) / Введение во храм Пресвятой Богородицы (2CD)
pic
Страна: Россия. Продюсерский центр Игоря Матвиенко
Жанр: Церковная музыка и церковные хоры (lossless)
Год выпуска: 2003
Формат: APE (image + .cue)
Битрейт аудио: lossless
Продолжительность: 00:41:54/00:42:31
Трэклист:
ДИСК I
На вечерне:
01. Господи, воззвах [с псалмами] (глас 1****)
Стихиры на Господи воззвах…
02. «Днесь, вернии, ликовствуим…» (глас 1*)
03. «Ты — пророков проповедание…» (глас 1*)
04. «Веселяся, приими, Захарие…» (глас 4*)
05. Слава и ныне…
«По Рождестве Твоем, Богоневесто…»(глас 8*)
06. Свете тихий… (глас 8**)
07. Паремии
На утрене:
08. Бог Господь… (глас 4**)
09. Тропарь праздника «Днесь благоволения Божия предображение…» (глас 4**)
10. Седален «Да радуется Давид…»
11. Прокимен: "Слыши, Дщи, и виждь… "(глас 4***/****)
12. Чин Евангелия (глас 4****)
13. Псалом 50
14. «Днесь Боговместимый храм…» глас 4**
ДИСК II
Канон праздника (глас 4 / глас 1*/**/*****)
01. Песнь 1
02. Седален Возопи Давиде…
03. Песнь 6
04. Кондак «Пречистый храм Спасов…» (глас 4*)
Икос «Неизреченных Божиих и Божественных Таин…»
05. Песнь 9
06. Всякое дыхание… (глас 1****)
07. Стихира на хвалитех «Свещеносицы девы…» (глас 1)
Подобен: Небесных чинов… (Напев Оптиной пустыни с исоном)
08. Слава, и ныне…
«Днесь в храм приводится…» (глас 2**)

* знаменный распев
** знаменный распев с исоном
*** валаамский распев
**** валаамский распев с исоном
***** напев Троице-Сергиевой Лавры с исоном
Дополнительная информация: Чтение Евангелия-иерей Ростислав Перебейнос.
Записано в домашней студии.
2003 год.

EAC log
Exact Audio Copy V0.99 prebeta 5 from 4. May 2009

Отчёт EAC об извлечении, выполненном 17. февраля 2010, 18:32

Иеродиакон Герман (Рябцев) / Введение во храм Пресвятой Богородицы-1

Дисковод: ASUS DRW-2014L1T Adapter: 0 ID: 1

Режим чтения : Скоростной

Коррекция смещения при чтении : 6
Способность читать области Lead-in и Lead-out : Нет
Заполнение пропущенных сэмплов тишиной : Да
Удаление блоков с тишиной в начале и конце : Нет
При вычислениях CRC использовались нулевые сэмплы : Да
Интерфейс : Встроенный Win32-интерфейс для Win NT/2000

Выходной формат : Внутренние WAV-операции
Формат сэмплов : 44.100 Гц; 16 бит; стерео

TOC извлечённого CD

Трек | Старт | Длительность | Начальный сектор | Конечный сектор
---------------------------------------------------------------------
1 | 0:00.00 | 3:49.44 | 0 | 17218
2 | 3:49.44 | 6:12.62 | 17219 | 45180
3 | 10:02.31 | 3:58.72 | 45181 | 63102
4 | 14:01.28 | 2:39.68 | 63103 | 75095
5 | 16:41.21 | 5:11.41 | 75096 | 98461
6 | 21:52.62 | 1:36.11 | 98462 | 105672
7 | 23:28.73 | 1:43.28 | 105673 | 113425
8 | 25:12.26 | 6:00.33 | 113426 | 140458
9 | 31:12.59 | 0:55.02 | 140459 | 144585
10 | 32:07.61 | 0:30.69 | 144586 | 146904
11 | 32:38.55 | 0:54.67 | 146905 | 151021
12 | 33:33.47 | 3:50.43 | 151022 | 168314
13 | 37:24.15 | 1:59.02 | 168315 | 177241
14 | 39:23.17 | 2:31.44 | 177242 | 188610

Характеристики диапазона извлечения и сообщения об ошибках

Выбранный диапазон

Имя файла C:\Иеродиакон Герман (Рябцев) - Введение во храм Пресвятой Богородицы-1.wav

Проблемы синхронизации 0:00:38

Пиковый уровень 97.7 %
CRC копии 5E6F81F6
Копирование завершено

Ошибок не произошло

Конец отчёта

CD2/
Exact Audio Copy V0.99 prebeta 5 from 4. May 2009

Отчёт EAC об извлечении, выполненном 17. февраля 2010, 18:36

Unknown Artist / Введение во Храм-2

Дисковод: ASUS DRW-2014L1T Adapter: 0 ID: 1

Режим чтения : Скоростной

Коррекция смещения при чтении : 6
Способность читать области Lead-in и Lead-out : Нет
Заполнение пропущенных сэмплов тишиной : Да
Удаление блоков с тишиной в начале и конце : Нет
При вычислениях CRC использовались нулевые сэмплы : Да
Интерфейс : Встроенный Win32-интерфейс для Win NT/2000

Выходной формат : Внутренние WAV-операции
Формат сэмплов : 44.100 Гц; 16 бит; стерео

TOC извлечённого CD

Трек | Старт | Длительность | Начальный сектор | Конечный сектор
---------------------------------------------------------------------
1 | 0:00.00 | 5:41.40 | 0 | 25614
2 | 5:41.40 | 1:15.64 | 25615 | 31303
3 | 6:57.29 | 5:39.17 | 31304 | 56745
4 | 12:36.46 | 3:09.52 | 56746 | 70972
5 | 15:46.23 | 16:33.38 | 70973 | 145485
6 | 32:19.61 | 3:02.15 | 145486 | 159150
7 | 35:22.01 | 4:14.04 | 159151 | 178204
8 | 39:36.05 | 2:55.30 | 178205 | 191359

Характеристики диапазона извлечения и сообщения об ошибках

Выбранный диапазон

Имя файла C:\Unknown Artist - Введение во Храм-2.wav

Проблемы синхронизации 0:00:39
Подозрительная позиция 0:04:26
Проблемы синхронизации 0:06:15
Проблемы синхронизации 0:08:09
Проблемы синхронизации 0:10:36

Пиковый уровень 99.2 %
CRC копии 416A3D60
Копирование завершено

Ошибок не произошло

Конец отчёта

Download

Войдите на сайт, чтобы увидеть полную информацию.

Как скачивать  ·   Правила трекера

[Профиль]  [ЛС] 

rexxxer

Стаж: 12 лет

Сообщений: 137

Откуда: Россия

Russia

post 18-Фев-2010 20:47 (спустя 1 день)

[Цитировать] 

Брат Сергулет! Спаси Вас Господи за Ваши раздачи! Нет ли у Вас возможности выложить обложки к песнопениям на двунадесятые праздники?

_________________
pic
[Профиль]  [ЛС] 

jaromar

Стаж: 12 лет

Сообщений: 21

Откуда: Краснодар.

Russia

post 07-Июн-2010 17:17 (спустя 3 месяца 16 дней)

[Цитировать] 

А ещё раздавать будут?
[Профиль]  [ЛС] 

Владимир Лухов

Стаж: 11 лет

Сообщений: 110

Откуда: Саратов

Russia

post 02-Дек-2010 07:11 (спустя 5 месяцев 24 дня)

[Цитировать] 

Спасибо. Скоро праздник!

_________________
С уважением. Владимир.
[Профиль]  [ЛС] 

VOICE 1

post 03-Дек-2010 09:01 (спустя 1 день 1 час)

[Цитировать] 

Спаси Господи!Спраздником!
 

Наталия Чупрова

Стаж: 11 лет

Сообщений: 50

Russia

post 04-Дек-2010 07:10 (спустя 22 часа)

[Цитировать] 

C Праздником Вас, дорогие!!!
Спасибо большое за раздачу!!!

_________________
Да хранит вас Бог
[Профиль]  [ЛС] 

Владимир Лухов

Стаж: 11 лет

Сообщений: 110

Откуда: Саратов

Russia

post 11-Дек-2010 02:57 (спустя 6 дней)

[Цитировать] 

На празлник "Введения во храм Пресвятой Богородицы"
4 декабря 2010 года умерла моя МАМА р.б. Валентина.
Со святыми упокой Христе Боже наш.
Скорблю.
Завтра 9 дней.
[Профиль]  [ЛС] 

+Сергей+

Стаж: 11 лет

Сообщений: 225

Откуда: Москва

Russia

post 13-Дек-2010 13:45 (спустя 2 дня 10 часов)

[Цитировать] 

Спасибо!
[Профиль]  [ЛС] 

Idealist

Стаж: 11 лет

Сообщений: 58

Russia

post 15-Ноя-2011 14:08 (спустя 11 месяцев)

[Цитировать] 

Спаси Господи за доброе дело!
[Профиль]  [ЛС] 

GROTESK

Стаж: 13 лет

Сообщений: 81

Откуда: Краснодон

Ukraine

post 04-Дек-2011 10:30 (спустя 18 дней)

[Цитировать] 

Спаси Вас Господи и всех православных.С праздником!
[Профиль]  [ЛС] 

a1bllll

Стаж: 11 лет

Сообщений: 405

Russia

post 31-Дек-2011 01:18 (спустя 26 дней)

[Цитировать] 

Спаси вас Бог за вашу миссионерскую деятельность!

_________________
Слава Богу за всё!
[Профиль]  [ЛС] 

shymsknik

Стаж: 11 лет

Сообщений: 182

Russia

post 18-Апр-2012 15:11 (спустя 3 месяца 18 дней)

[Цитировать] 

Брат Сергулет! Спаси Вас Господи за Ваши раздачи!
[Профиль]  [ЛС] 

gavrik.s

Стаж: 10 лет

Сообщений: 85

post 07-Дек-2012 05:08 (спустя 7 месяцев)

[Цитировать] 

Благодарю,иеродиакон Герман (Рябцев) наверно один из лучших певчих.
[Профиль]  [ЛС] 

konstantin67

Стаж: 12 лет

Сообщений: 29

Откуда: Липецк

Russia

post 19-Дек-2013 02:46 (спустя 1 год)

[Цитировать] 

иеродиакон Герман (Рябцев) один из лучших певчих!!!

_________________
Костя
[Профиль]  [ЛС] 

serpantin04

Стаж: 10 лет

Сообщений: 84

Belarus

post 15-Июн-2014 12:39 (спустя 5 месяцев 27 дней)

[Цитировать] 

Спасибо.
[Профиль]  [ЛС] 
Показать сообщения:    
Ответить на тему

Текущее время: 13-Авг 04:50

Часовой пояс: GMT + 4



Вы не можете начинать темы
Вы не можете отвечать на сообщения
Вы не можете редактировать свои сообщения
Вы не можете удалять свои сообщения
Вы не можете голосовать в опросах
Вы не можете прикреплять файлы к сообщениям
Вы не можете скачивать файлы