Loading...
Error

(Церковная музыка и церковные хоры (lossless).) "Молебный канон иконе Божией Матери «Скоропослушница»". - 1998, APE (image + .cue), lossless

Ответить на тему
Статистика раздачи
   
 
Автор Сообщение

СЕРГУЛЕТ

Стаж: 8 лет 9 месяцев

Сообщений: 2640

Откуда: LA ROMANA

Dominicanrep

post 18-Ноя-2009 20:31

[Цитировать] 

"Молебный канон иконе Божией Матери «Скоропослушница»".

pic
Страна: Греция. Монастырь "Дохиар", Святая Гора Афон.
Жанр: Церковная музыка и церковные хоры (lossless).
Год выпуска: 1998
Формат: APE (image + .cue)
Битрейт аудио: lossless
Продолжительность: 01:13:47
Содержание+Обложки
picpicpic
Поёт братский хор монастыря Дохиар.
EAC log
Exact Audio Copy V0.99 prebeta 5 from 4. May 2009

Отчёт EAC об извлечении, выполненном 18. ноября 2009, 6:59

Хор монастыря Дохиар / Канон иконе Божией Матери Скоропослушница

Дисковод: ASUS BC-1205PT Adapter: 1 ID: 0

Режим чтения : Достоверность
Использование точного потока : Да
Отключение кэша аудио : Да
Использование указателей C2 : Нет

Коррекция смещения при чтении : 667
Способность читать области Lead-in и Lead-out : Нет
Заполнение пропущенных сэмплов тишиной : Да
Удаление блоков с тишиной в начале и конце : Нет
При вычислениях CRC использовались нулевые сэмплы : Да
Интерфейс : Встроенный Win32-интерфейс для Win NT/2000

Выходной формат : Внутренние WAV-операции
Формат сэмплов : 44.100 Гц; 16 бит; стерео

TOC извлечённого CD

Трек | Старт | Длительность | Начальный сектор | Конечный сектор
---------------------------------------------------------------------
1 | 0:00.00 | 0:35.31 | 0 | 2655
2 | 0:35.31 | 49:23.42 | 2656 | 224922
3 | 49:58.73 | 11:15.24 | 224923 | 275571
4 | 61:14.22 | 12:31.52 | 275572 | 331948

Характеристики диапазона извлечения и сообщения об ошибках

Выбранный диапазон

Имя файла C:\Хор монастыря Дохиар - Канон иконе Божией Матери Скоропослушница.wav

Пиковый уровень 97.8 %
Качество диапазона 100.0 %
CRC копии AB727391
Копирование... OK

Ошибок не произошло
Download

Войдите на сайт, чтобы увидеть полную информацию.

Как скачивать  ·   Правила трекера



Последний раз редактировалось: СЕРГУЛЕТ (2010-02-13 11:52), всего редактировалось 1 раз
[Профиль]  [ЛС] 

bassetfedia

Стаж: 8 лет 9 месяцев

Сообщений: 4

Откуда: St. Petersburg

Russia

post 05-Дек-2009 13:02 (спустя 16 дней)

[Цитировать] 

Вчера братия этого монастыря пела в нашем храме.


Последний раз редактировалось: bassetfedia (2010-11-21 16:35), всего редактировалось 1 раз
[Профиль]  [ЛС] 

СЕРГУЛЕТ

Стаж: 8 лет 9 месяцев

Сообщений: 2640

Откуда: LA ROMANA

Dominicanrep

post 05-Дек-2009 13:07 (спустя 5 минут)

[Цитировать] 

bassetfedia
Сейчас пойдет.
[Профиль]  [ЛС] 

bassetfedia

Стаж: 8 лет 9 месяцев

Сообщений: 4

Откуда: St. Petersburg

Russia

post 05-Дек-2009 14:19 (спустя 1 час 11 минут)

[Цитировать] 

Дорогой Сергулет! Действительно "пошло", но я, неразумная, случайно удалила папку. Нодо, что бы снова "пошло". Простите!
[Профиль]  [ЛС] 

rexxxer

Стаж: 8 лет 2 месяца

Сообщений: 137

Откуда: Россия

Russia

post 11-Июл-2010 20:17 (спустя 7 месяцев)

[Цитировать] 

Включите пожалуйста раздачу!

_________________
pic
[Профиль]  [ЛС] 

rexxxer

Стаж: 8 лет 2 месяца

Сообщений: 137

Откуда: Россия

Russia

post 12-Июл-2010 17:35 (спустя 21 час)

[Цитировать] 

А когда раздача???

_________________
pic
[Профиль]  [ЛС] 

AllaVal27

Стаж: 4 года

Сообщений: 139

Canada

post 12-Ноя-2013 10:01 (спустя 3 года 3 месяца)

[Цитировать] 

Благодарю!
[Профиль]  [ЛС] 

GROTESK

Стаж: 8 лет 6 месяцев

Сообщений: 78

Откуда: Краснодон

Ukraine

post 19-Май-2014 23:40 (спустя 6 месяцев)

[Цитировать] 

Спаси Вас Господи.
[Профиль]  [ЛС] 

Горсвет

Стаж: 5 лет 11 месяцев

Сообщений: 113

Ukraine

post 15-Окт-2015 11:03 (спустя 1 год 4 месяца)

[Цитировать] 

добрые люди дайте скорости пожалуйста спаси Бог за раздачу!

_________________
ДА ЛЮБИТЕ ДРУГ ДРУГА
[Профиль]  [ЛС] 
Показать сообщения:    
Ответить на тему

Текущее время: 19-Ноя 15:56

Часовой пояс: GMT + 4



Вы не можете начинать темы
Вы не можете отвечать на сообщения
Вы не можете редактировать свои сообщения
Вы не можете удалять свои сообщения
Вы не можете голосовать в опросах
Вы не можете прикреплять файлы к сообщениям
Вы не можете скачивать файлы